  0
SECTION
  2
HEADER
  9
$ACADVER
  1
AC1015
  9
$ACADMAINTVER
 70
     6
  9
$DWGCODEPAGE
  3
ANSI_932
  9
$INSBASE
 10
0.0
 20
0.0
 30
0.0
  9
$EXTMIN
 10
-13321.19007251644
 20
-8825.043110873597
 30
-148.5
  9
$EXTMAX
 10
13350.90647020285
 20
9169.684096803885
 30
148.5
  9
$LIMMIN
 10
0.0
 20
0.0
  9
$LIMMAX
 10
12.0
 20
9.0
  9
$ORTHOMODE
 70
     0
  9
$REGENMODE
 70
     1
  9
$FILLMODE
 70
     1
  9
$QTEXTMODE
 70
     0
  9
$MIRRTEXT
 70
     1
  9
$LTSCALE
 40
508.0
  9
$ATTMODE
 70
     1
  9
$TEXTSIZE
 40
0.2
  9
$TRACEWID
 40
1.0
  9
$TEXTSTYLE
  7
STANDARD
  9
$CLAYER
  8
0-2
  9
$CELTYPE
  6
ByLayer
  9
$CECOLOR
 62
   256
  9
$CELTSCALE
 40
1.0
  9
$DISPSILH
 70
     0
  9
$DIMSCALE
 40
1.0
  9
$DIMASZ
 40
317.5
  9
$DIMEXO
 40
158.75
  9
$DIMDLI
 40
10.16
  9
$DIMRND
 40
0.0
  9
$DIMDLE
 40
158.75
  9
$DIMEXE
 40
317.5
  9
$DIMTP
 40
0.0
  9
$DIMTM
 40
0.0
  9
$DIMTXT
 40
194.0277777777778
  9
$DIMCEN
 40
0.0
  9
$DIMTSZ
 40
0.0
  9
$DIMTOL
 70
     0
  9
$DIMLIM
 70
     0
  9
$DIMTIH
 70
     0
  9
$DIMTOH
 70
     0
  9
$DIMSE1
 70
     0
  9
$DIMSE2
 70
     0
  9
$DIMTAD
 70
     1
  9
$DIMZIN
 70
     8
  9
$DIMBLK
  1
VW_SLASH
  9
$DIMASO
 70
     1
  9
$DIMSHO
 70
     1
  9
$DIMPOST
  1
<>
  9
$DIMAPOST
  1
[]
  9
$DIMALT
 70
     0
  9
$DIMALTD
 70
     3
  9
$DIMALTF
 40
0.0010936132983377
  9
$DIMLFAC
 40
1.0
  9
$DIMTOFL
 70
     1
  9
$DIMTVP
 40
0.0
  9
$DIMTIX
 70
     1
  9
$DIMSOXD
 70
     0
  9
$DIMSAH
 70
     0
  9
$DIMBLK1
  1
VW_SLASH
  9
$DIMBLK2
  1
VW_SLASH
  9
$DIMSTYLE
  2
Arch
  9
$DIMCLRD
 70
     0
  9
$DIMCLRE
 70
     0
  9
$DIMCLRT
 70
     0
  9
$DIMTFAC
 40
1.0
  9
$DIMGAP
 40
1.5875
  9
$DIMJUST
 70
     0
  9
$DIMSD1
 70
     0
  9
$DIMSD2
 70
     0
  9
$DIMTOLJ
 70
     1
  9
$DIMTZIN
 70
     8
  9
$DIMALTZ
 70
     4
  9
$DIMALTTZ
 70
     4
  9
$DIMUPT
 70
     0
  9
$DIMDEC
 70
     1
  9
$DIMTDEC
 70
     1
  9
$DIMALTU
 70
     2
  9
$DIMALTTD
 70
     2
  9
$DIMTXSTY
  7
ＭＳ Ｐゴシック
  9
$DIMAUNIT
 70
     0
  9
$DIMADEC
 70
     2
  9
$DIMALTRND
 40
0.0
  9
$DIMAZIN
 70
     0
  9
$DIMDSEP
 70
    46
  9
$DIMATFIT
 70
     0
  9
$DIMFRAC
 70
     2
  9
$DIMLDRBLK
  1
VW_FILLEDARROW
  9
$DIMLUNIT
 70
     2
  9
$DIMLWD
 70
    -2
  9
$DIMLWE
 70
    -2
  9
$DIMTMOVE
 70
     0
  9
$LUNITS
 70
     2
  9
$LUPREC
 70
     4
  9
$SKETCHINC
 40
0.1
  9
$FILLETRAD
 40
0.5
  9
$AUNITS
 70
     0
  9
$AUPREC
 70
     0
  9
$MENU
  1
.
  9
$ELEVATION
 40
0.0
  9
$PELEVATION
 40
0.0
  9
$THICKNESS
 40
0.0
  9
$LIMCHECK
 70
     0
  9
$CHAMFERA
 40
0.5
  9
$CHAMFERB
 40
0.5
  9
$CHAMFERC
 40
1.0
  9
$CHAMFERD
 40
0.0
  9
$SKPOLY
 70
     0
  9
$TDCREATE
 40
2459440.565111239
  9
$TDUCREATE
 40
2459440.190111239
  9
$TDUPDATE
 40
2459440.565111806
  9
$TDUUPDATE
 40
2459440.190111806
  9
$TDINDWG
 40
0.0000000116
  9
$TDUSRTIMER
 40
0.0000000116
  9
$USRTIMER
 70
     1
  9
$ANGBASE
 50
0.0
  9
$ANGDIR
 70
     0
  9
$PDMODE
 70
     1
  9
$PDSIZE
 40
-2.0
  9
$PLINEWID
 40
0.0
  9
$SPLFRAME
 70
     0
  9
$SPLINETYPE
 70
     6
  9
$SPLINESEGS
 70
     8
  9
$HANDSEED
  5
338
  9
$SURFTAB1
 70
     6
  9
$SURFTAB2
 70
     6
  9
$SURFTYPE
 70
     6
  9
$SURFU
 70
     6
  9
$SURFV
 70
     6
  9
$UCSBASE
  2

  9
$UCSNAME
  2

  9
$UCSORG
 10
0.0
 20
0.0
 30
0.0
  9
$UCSXDIR
 10
1.0
 20
0.0
 30
0.0
  9
$UCSYDIR
 10
0.0
 20
1.0
 30
0.0
  9
$UCSORTHOREF
  2

  9
$UCSORTHOVIEW
 70
     0
  9
$UCSORGTOP
 10
0.0
 20
0.0
 30
0.0
  9
$UCSORGBOTTOM
 10
0.0
 20
0.0
 30
0.0
  9
$UCSORGLEFT
 10
0.0
 20
0.0
 30
0.0
  9
$UCSORGRIGHT
 10
0.0
 20
0.0
 30
0.0
  9
$UCSORGFRONT
 10
0.0
 20
0.0
 30
0.0
  9
$UCSORGBACK
 10
0.0
 20
0.0
 30
0.0
  9
$PUCSBASE
  2

  9
$PUCSNAME
  2

  9
$PUCSORG
 10
0.0
 20
0.0
 30
0.0
  9
$PUCSXDIR
 10
1.0
 20
0.0
 30
0.0
  9
$PUCSYDIR
 10
0.0
 20
1.0
 30
0.0
  9
$PUCSORTHOREF
  2

  9
$PUCSORTHOVIEW
 70
     0
  9
$PUCSORGTOP
 10
0.0
 20
0.0
 30
0.0
  9
$PUCSORGBOTTOM
 10
0.0
 20
0.0
 30
0.0
  9
$PUCSORGLEFT
 10
0.0
 20
0.0
 30
0.0
  9
$PUCSORGRIGHT
 10
0.0
 20
0.0
 30
0.0
  9
$PUCSORGFRONT
 10
0.0
 20
0.0
 30
0.0
  9
$PUCSORGBACK
 10
0.0
 20
0.0
 30
0.0
  9
$USERI1
 70
     0
  9
$USERI2
 70
     0
  9
$USERI3
 70
     0
  9
$USERI4
 70
     0
  9
$USERI5
 70
     0
  9
$USERR1
 40
0.0
  9
$USERR2
 40
0.0
  9
$USERR3
 40
0.0
  9
$USERR4
 40
0.0
  9
$USERR5
 40
0.0
  9
$WORLDVIEW
 70
     1
  9
$SHADEDGE
 70
     3
  9
$SHADEDIF
 70
    70
  9
$TILEMODE
 70
     1
  9
$MAXACTVP
 70
    64
  9
$PINSBASE
 10
0.0
 20
0.0
 30
0.0
  9
$PLIMCHECK
 70
     0
  9
$PEXTMIN
 10
1.000000000000000E+20
 20
1.000000000000000E+20
 30
1.000000000000000E+20
  9
$PEXTMAX
 10
-1.000000000000000E+20
 20
-1.000000000000000E+20
 30
-1.000000000000000E+20
  9
$PLIMMIN
 10
-20.0
 20
-7.5
  9
$PLIMMAX
 10
277.0
 20
202.5
  9
$UNITMODE
 70
     0
  9
$VISRETAIN
 70
     1
  9
$PLINEGEN
 70
     0
  9
$PSLTSCALE
 70
     1
  9
$TREEDEPTH
 70
  3020
  9
$CMLSTYLE
  2
Standard
  9
$CMLJUST
 70
     0
  9
$CMLSCALE
 40
1.0
  9
$PROXYGRAPHICS
 70
     1
  9
$MEASUREMENT
 70
     1
  9
$CELWEIGHT
370
    -1
  9
$ENDCAPS
280
     0
  9
$JOINSTYLE
280
     0
  9
$LWDISPLAY
290
     1
  9
$INSUNITS
 70
     4
  9
$HYPERLINKBASE
  1

  9
$STYLESHEET
  1

  9
$XEDIT
290
     1
  9
$CEPSNTYPE
380
     0
  9
$PSTYLEMODE
290
     1
  9
$FINGERPRINTGUID
  2
{3E1C8CE4-4B21-4E36-9575-17516905BC0A}
  9
$VERSIONGUID
  2
{FAEB1C32-E019-11D5-929B-00C0DF256EC4}
  9
$EXTNAMES
290
     1
  9
$PSVPSCALE
 40
0.0
  9
$OLESTARTUP
290
     0
  0
ENDSEC
  0
SECTION
  2
CLASSES
  0
CLASS
  1
ACDBDICTIONARYWDFLT
  2
AcDbDictionaryWithDefault
  3
ObjectDBX Classes
 90
        0
280
     0
281
     0
  0
CLASS
  1
VISUALSTYLE
  2
AcDbVisualStyle
  3
ObjectDBX Classes
 90
     4095
280
     0
281
     0
  0
CLASS
  1
WIPEOUTVARIABLES
  2
AcDbWipeoutVariables
  3
WipeOut|AutoCAD Express Tool|expresstools@autodesk.com
 90
        0
280
     0
281
     0
  0
CLASS
  1
WIPEOUT
  2
AcDbWipeout
  3
WipeOut|AutoCAD Express Tool|expresstools@autodesk.com
 90
      127
280
     0
281
     1
  0
CLASS
  1
SCALE
  2
AcDbScale
  3
ObjectDBX Classes
 90
     1153
280
     0
281
     0
  0
CLASS
  1
DICTIONARYVAR
  2
AcDbDictionaryVar
  3
ObjectDBX Classes
 90
        0
280
     0
281
     0
  0
CLASS
  1
ACDBPLACEHOLDER
  2
AcDbPlaceHolder
  3
ObjectDBX Classes
 90
        0
280
     0
281
     0
  0
CLASS
  1
LAYOUT
  2
AcDbLayout
  3
ObjectDBX Classes
 90
        0
280
     0
281
     0
  0
ENDSEC
  0
SECTION
  2
TABLES
  0
TABLE
  2
VPORT
  5
8
330
0
100
AcDbSymbolTable
 70
     1
  0
VPORT
  5
29
330
8
100
AcDbSymbolTableRecord
100
AcDbViewportTableRecord
  2
*Active
 70
     0
 10
0.0
 20
0.0
 11
1.0
 21
1.0
 12
14.85819884320335
 22
172.3204929651438
 13
0.0
 23
0.0
 14
0.5
 24
0.5
 15
0.5
 25
0.5
 16
0.0
 26
0.0
 36
1.0
 17
0.0
 27
0.0
 37
0.0
 40
17994.72720767748
 41
0.0009867755454541
 42
2000.0
 43
0.0
 44
0.0
 50
0.0
 51
0.0
 71
     0
 72
   100
 73
     1
 74
     3
 75
     0
 76
     0
 77
     0
 78
     0
281
     0
 65
     1
110
0.0
120
0.0
130
0.0
111
1.0
121
0.0
131
0.0
112
0.0
122
1.0
132
0.0
 79
     0
146
0.0
  0
ENDTAB
  0
TABLE
  2
LTYPE
  5
5
330
0
100
AcDbSymbolTable
 70
    11
  0
LTYPE
  5
14
330
5
100
AcDbSymbolTableRecord
100
AcDbLinetypeTableRecord
  2
ByBlock
 70
     0
  3

 72
    65
 73
     0
 40
0.0
  0
LTYPE
  5
15
330
5
100
AcDbSymbolTableRecord
100
AcDbLinetypeTableRecord
  2
ByLayer
 70
     0
  3

 72
    65
 73
     0
 40
0.0
  0
LTYPE
  5
16
330
5
100
AcDbSymbolTableRecord
100
AcDbLinetypeTableRecord
  2
Continuous
 70
     0
  3
Solid line
 72
    65
 73
     0
 40
0.0
  0
LTYPE
  5
77
330
5
100
AcDbSymbolTableRecord
100
AcDbLinetypeTableRecord
  2
破線の種類-1
 70
     0
  3

 72
    65
 73
     2
 40
0.41664
 49
0.20828
 74
     0
 49
-0.20836
 74
     0
  0
LTYPE
  5
78
330
5
100
AcDbSymbolTableRecord
100
AcDbLinetypeTableRecord
  2
破線の種類-2
 70
     0
  3

 72
    65
 73
     2
 40
0.6944250000000001
 49
0.48607
 74
     0
 49
-0.2083550000000001
 74
     0
  0
LTYPE
  5
79
330
5
100
AcDbSymbolTableRecord
100
AcDbLinetypeTableRecord
  2
破線の種類-3
 70
     0
  3

 72
    65
 73
     2
 40
1.25
 49
1.04164
 74
     0
 49
-0.2083599999999999
 74
     0
  0
LTYPE
  5
7A
330
5
100
AcDbSymbolTableRecord
100
AcDbLinetypeTableRecord
  2
破線の種類-4
 70
     0
  3

 72
    65
 73
     2
 40
1.52771
 49
1.319425
 74
     0
 49
-0.208285
 74
     0
  0
LTYPE
  5
7B
330
5
100
AcDbSymbolTableRecord
100
AcDbLinetypeTableRecord
  2
破線の種類-5
 70
     0
  3

 72
    65
 73
     2
 40
0.20828
 49
0.069425
 74
     0
 49
-0.138855
 74
     0
  0
LTYPE
  5
7C
330
5
100
AcDbSymbolTableRecord
100
AcDbLinetypeTableRecord
  2
破線の種類-6
 70
     0
  3

 72
    65
 73
     4
 40
1.04164
 49
0.625
 74
     0
 49
-0.20828
 74
     0
 49
0.06943
 74
     0
 49
-0.13893
 74
     0
  0
LTYPE
  5
7D
330
5
100
AcDbSymbolTableRecord
100
AcDbLinetypeTableRecord
  2
破線の種類-7
 70
     0
  3

 72
    65
 73
     6
 40
1.875
 49
0.625
 74
     0
 49
-0.20828
 74
     0
 49
0.6250000000000001
 74
     0
 49
-0.2083599999999999
 74
     0
 49
0.06943
 74
     0
 49
-0.1389299999999999
 74
     0
  0
LTYPE
  5
7E
330
5
100
AcDbSymbolTableRecord
100
AcDbLinetypeTableRecord
  2
破線の種類-8
 70
     0
  3

 72
    65
 73
     6
 40
1.25
 49
0.625
 74
     0
 49
-0.20828
 74
     0
 49
0.06943
 74
     0
 49
-0.13893
 74
     0
 49
0.0694299999999999
 74
     0
 49
-0.13893
 74
     0
  0
LTYPE
  5
7F
330
5
100
AcDbSymbolTableRecord
100
AcDbLinetypeTableRecord
  2
破線の種類-9
 70
     0
  3

 72
    65
 73
     4
 40
5.0
 49
3.75
 74
     0
 49
-0.2777849999999998
 74
     0
 49
0.6944300000000003
 74
     0
 49
-0.2777849999999998
 74
     0
  0
LTYPE
  5
80
330
5
100
AcDbSymbolTableRecord
100
AcDbLinetypeTableRecord
  2
破線の種類-10
 70
     0
  3

 72
    65
 73
     6
 40
5.9375
 49
3.75
 74
     0
 49
-0.2777849999999998
 74
     0
 49
0.6944300000000003
 74
     0
 49
-0.2777849999999998
 74
     0
 49
0.625
 74
     0
 49
-0.3125
 74
     0
  0
ENDTAB
  0
TABLE
  2
LAYER
  5
2
330
0
100
AcDbSymbolTable
 70
    18
  0
LAYER
  5
10
330
2
100
AcDbSymbolTableRecord
100
AcDbLayerTableRecord
  2
0
 70
     0
 62
     7
  6
Continuous
370
    -3
390
F
  0
LAYER
  5
81
330
2
100
AcDbSymbolTableRecord
100
AcDbLayerTableRecord
  2
一般
 70
     0
 62
     7
  6
Continuous
370
     5
390
F
  0
LAYER
  5
82
330
2
100
AcDbSymbolTableRecord
100
AcDbLayerTableRecord
  2
寸法
 70
     0
 62
     7
  6
Continuous
370
     5
390
F
  0
LAYER
  5
83
330
2
100
AcDbSymbolTableRecord
100
AcDbLayerTableRecord
  2
0-1
 70
     0
 62
     7
  6
Continuous
370
     5
390
F
  0
LAYER
  5
84
330
2
100
AcDbSymbolTableRecord
100
AcDbLayerTableRecord
  2
0-2
 70
     0
 62
     7
  6
Continuous
370
     5
390
F
  0
LAYER
  5
85
330
2
100
AcDbSymbolTableRecord
100
AcDbLayerTableRecord
  2
0-0
 70
     0
 62
     7
  6
Continuous
370
     5
390
F
  0
LAYER
  5
86
330
2
100
AcDbSymbolTableRecord
100
AcDbLayerTableRecord
  2
0-F
 70
     0
 62
     7
  6
Continuous
370
     5
390
F
  0
LAYER
  5
87
330
2
100
AcDbSymbolTableRecord
100
AcDbLayerTableRecord
  2
0-8 文字
 70
     0
 62
     7
  6
Continuous
370
     5
390
F
  0
LAYER
  5
88
330
2
100
AcDbSymbolTableRecord
100
AcDbLayerTableRecord
  2
0-2 駆体
 70
     0
 62
     7
  6
Continuous
370
     5
390
F
  0
LAYER
  5
89
330
2
100
AcDbSymbolTableRecord
100
AcDbLayerTableRecord
  2
0-3 フレーム
 70
     0
 62
     7
  6
Continuous
370
     5
390
F
  0
LAYER
  5
8A
330
2
100
AcDbSymbolTableRecord
100
AcDbLayerTableRecord
  2
0-4 点線
 70
     0
 62
     7
  6
Continuous
370
     5
390
F
  0
LAYER
  5
8B
330
2
100
AcDbSymbolTableRecord
100
AcDbLayerTableRecord
  2
0-8 吊物機構
 70
     0
 62
     7
  6
Continuous
370
     5
390
F
  0
LAYER
  5
8C
330
2
100
AcDbSymbolTableRecord
100
AcDbLayerTableRecord
  2
0-6 ﾎｰﾙ文字
 70
     0
 62
     7
  6
Continuous
370
     5
390
F
  0
LAYER
  5
8D
330
2
100
AcDbSymbolTableRecord
100
AcDbLayerTableRecord
  2
0-A 寸法
 70
     0
 62
     7
  6
Continuous
370
     5
390
F
  0
LAYER
  5
8E
330
2
100
AcDbSymbolTableRecord
100
AcDbLayerTableRecord
  2
0-B ハッチ
 70
     0
 62
     7
  6
Continuous
370
     5
390
F
  0
LAYER
  5
8F
330
2
100
AcDbSymbolTableRecord
100
AcDbLayerTableRecord
  2
0-2 駆体１階
 70
     0
 62
     7
  6
Continuous
370
     5
390
F
  0
LAYER
  5
90
330
2
100
AcDbSymbolTableRecord
100
AcDbLayerTableRecord
  2
0-9 ｾﾝﾀｰﾗｲﾝ
 70
     0
 62
     7
  6
Continuous
370
     5
390
F
  0
LAYER
  5
91
330
2
100
AcDbSymbolTableRecord
100
AcDbLayerTableRecord
  2
Defpoints
 70
     0
 62
     7
  6
Continuous
290
     0
370
    -3
390
F
  0
ENDTAB
  0
TABLE
  2
STYLE
  5
3
330
0
100
AcDbSymbolTable
 70
     3
  0
STYLE
  5
11
330
3
100
AcDbSymbolTableRecord
100
AcDbTextStyleTableRecord
  2
STANDARD
 70
     0
 40
0.0
 41
1.0
 50
0.0
 71
     0
 42
0.2
  3
txt
  4
BIGFONT.SHX
  0
STYLE
  5
75
330
3
100
AcDbSymbolTableRecord
100
AcDbTextStyleTableRecord
  2
ＭＳ Ｐゴシック
 70
     0
 40
0.0
 41
1.0
 50
0.0
 71
     0
 42
0.0
  3

  4
ＭＳ Ｐゴシック
1001
ACAD
1000
ＭＳ Ｐゴシック
1071
        0
  0
STYLE
  5
76
330
3
100
AcDbSymbolTableRecord
100
AcDbTextStyleTableRecord
  2
ＭＳ ゴシック
 70
     0
 40
0.0
 41
1.0
 50
0.0
 71
     0
 42
0.0
  3

  4
ＭＳ ゴシック
1001
ACAD
1000
ＭＳ ゴシック
1071
        0
  0
ENDTAB
  0
TABLE
  2
VIEW
  5
6
330
0
100
AcDbSymbolTable
 70
     0
  0
ENDTAB
  0
TABLE
  2
UCS
  5
7
330
0
100
AcDbSymbolTable
 70
     0
  0
ENDTAB
  0
TABLE
  2
APPID
  5
9
330
0
100
AcDbSymbolTable
 70
     3
  0
APPID
  5
12
330
9
100
AcDbSymbolTableRecord
100
AcDbRegAppTableRecord
  2
ACAD
 70
     0
  0
APPID
  5
336
330
9
100
AcDbSymbolTableRecord
100
AcDbRegAppTableRecord
  2
ACAD_DSTYLE_DIMEXT_ENABLED
 70
     0
  0
APPID
  5
337
330
9
100
AcDbSymbolTableRecord
100
AcDbRegAppTableRecord
  2
ACAD_DSTYLE_DIMEXT_LENGTH
 70
     0
  0
ENDTAB
  0
TABLE
  2
DIMSTYLE
  5
A
330
0
100
AcDbSymbolTable
 70
     3
100
AcDbDimStyleTable
  0
DIMSTYLE
105
27
330
A
100
AcDbSymbolTableRecord
100
AcDbDimStyleTableRecord
  2
Standard
 70
     0
340
11
  0
DIMSTYLE
105
92
330
A
100
AcDbSymbolTableRecord
100
AcDbDimStyleTableRecord
  2
Arch
 70
     0
  3
<>
  4
[]
 41
317.5
 42
158.75
 43
10.16
 44
317.5
 46
158.75
 73
     0
 74
     0
 77
     1
 78
     8
140
194.0277777777778
141
0.0
143
0.0010936132983377
147
1.5875
171
     3
172
     1
174
     1
179
     2
271
     1
272
     1
276
     2
284
     8
285
     4
286
     4
289
     0
340
75
341
9C
342
93
343
93
344
93
  0
DIMSTYLE
105
A6
102
{ACAD_REACTORS
330
29A
330
29B
330
29C
330
29D
330
29E
330
303
102
}
330
A
100
AcDbSymbolTableRecord
100
AcDbDimStyleTableRecord
  2
SIA
 70
     0
  3
<>
  4
[]
 41
317.5
 42
199.999999999962
 43
10.00000000000064
 44
300.00000000007
 46
100.000000000108
 73
     0
 74
     0
 77
     1
 78
     8
140
194.0277777777778
141
0.0
143
0.0010936132983377
147
3.0000000000007
171
     3
172
     1
174
     1
179
     2
271
     1
272
     1
276
     2
284
     8
285
     4
286
     4
289
     0
340
75
341
9C
342
93
343
93
344
93
1001
ACAD_DSTYLE_DIMEXT_ENABLED
1070
   383
1070
     1
1001
ACAD_DSTYLE_DIMEXT_LENGTH
1070
   378
1040
1000.000000000064
  0
ENDTAB
  0
TABLE
  2
BLOCK_RECORD
  5
1
330
0
100
AcDbSymbolTable
 70
    22
  0
BLOCK_RECORD
  5
1F
330
1
100
AcDbSymbolTableRecord
100
AcDbBlockTableRecord
  2
*Model_Space
340
22
  0
BLOCK_RECORD
  5
1B
330
1
100
AcDbSymbolTableRecord
100
AcDbBlockTableRecord
  2
*Paper_Space
340
1E
  0
BLOCK_RECORD
  5
3B
330
1
100
AcDbSymbolTableRecord
100
AcDbBlockTableRecord
  2
グループ
340
0
102
{BLKREFS
331
289
102
}
  0
BLOCK_RECORD
  5
3E
330
1
100
AcDbSymbolTableRecord
100
AcDbBlockTableRecord
  2
グループ-1
340
0
102
{BLKREFS
331
28A
102
}
  0
BLOCK_RECORD
  5
41
330
1
100
AcDbSymbolTableRecord
100
AcDbBlockTableRecord
  2
*D3
340
0
  0
BLOCK_RECORD
  5
44
330
1
100
AcDbSymbolTableRecord
100
AcDbBlockTableRecord
  2
*D4
340
0
  0
BLOCK_RECORD
  5
47
330
1
100
AcDbSymbolTableRecord
100
AcDbBlockTableRecord
  2
*D5
340
0
  0
BLOCK_RECORD
  5
4A
330
1
100
AcDbSymbolTableRecord
100
AcDbBlockTableRecord
  2
*D6
340
0
  0
BLOCK_RECORD
  5
4D
330
1
100
AcDbSymbolTableRecord
100
AcDbBlockTableRecord
  2
*D7
340
0
  0
BLOCK_RECORD
  5
50
330
1
100
AcDbSymbolTableRecord
100
AcDbBlockTableRecord
  2
グループ-2
340
0
102
{BLKREFS
331
2A8
102
}
  0
BLOCK_RECORD
  5
53
330
1
100
AcDbSymbolTableRecord
100
AcDbBlockTableRecord
  2
グループ-3
340
0
102
{BLKREFS
331
2A9
102
}
  0
BLOCK_RECORD
  5
56
330
1
100
AcDbSymbolTableRecord
100
AcDbBlockTableRecord
  2
グループ-4
340
0
102
{BLKREFS
331
2B1
102
}
  0
BLOCK_RECORD
  5
59
330
1
100
AcDbSymbolTableRecord
100
AcDbBlockTableRecord
  2
グループ-5
340
0
102
{BLKREFS
331
2B2
102
}
  0
BLOCK_RECORD
  5
5C
330
1
100
AcDbSymbolTableRecord
100
AcDbBlockTableRecord
  2
グループ-6
340
0
102
{BLKREFS
331
300
102
}
  0
BLOCK_RECORD
  5
5F
330
1
100
AcDbSymbolTableRecord
100
AcDbBlockTableRecord
  2
グループ-7
340
0
102
{BLKREFS
331
301
102
}
  0
BLOCK_RECORD
  5
62
330
1
100
AcDbSymbolTableRecord
100
AcDbBlockTableRecord
  2
グループ-8
340
0
102
{BLKREFS
331
302
102
}
  0
BLOCK_RECORD
  5
65
330
1
100
AcDbSymbolTableRecord
100
AcDbBlockTableRecord
  2
*D15
340
0
  0
BLOCK_RECORD
  5
68
330
1
100
AcDbSymbolTableRecord
100
AcDbBlockTableRecord
  2
グループ-9
340
0
102
{BLKREFS
331
310
102
}
  0
BLOCK_RECORD
  5
6B
330
1
100
AcDbSymbolTableRecord
100
AcDbBlockTableRecord
  2
グループ-10
340
0
102
{BLKREFS
331
1F8
102
}
  0
BLOCK_RECORD
  5
6E
330
1
100
AcDbSymbolTableRecord
100
AcDbBlockTableRecord
  2
グループ-11
340
0
102
{BLKREFS
331
1F9
102
}
  0
BLOCK_RECORD
  5
71
330
1
100
AcDbSymbolTableRecord
100
AcDbBlockTableRecord
  2
グループ-12
340
0
102
{BLKREFS
331
311
102
}
  0
BLOCK_RECORD
  5
93
330
1
100
AcDbSymbolTableRecord
100
AcDbBlockTableRecord
  2
VW_SLASH
340
0
102
{BLKREFS
331
E0
331
DF
331
F1
331
F0
331
104
331
103
331
116
331
115
331
128
331
127
331
1CD
331
1CC
102
}
  0
BLOCK_RECORD
  5
9C
330
1
100
AcDbSymbolTableRecord
100
AcDbBlockTableRecord
  2
VW_FILLEDARROW
340
0
  0
ENDTAB
  0
ENDSEC
  0
SECTION
  2
BLOCKS
  0
BLOCK
  5
20
330
1F
100
AcDbEntity
  8
0
100
AcDbBlockBegin
  2
*Model_Space
 70
     0
 10
0.0
 20
0.0
 30
0.0
  3
*Model_Space
  1

  0
ENDBLK
  5
21
330
1F
100
AcDbEntity
  8
0
100
AcDbBlockEnd
  0
BLOCK
  5
1C
330
1B
100
AcDbEntity
 67
     1
  8
0
100
AcDbBlockBegin
  2
*Paper_Space
 70
     0
 10
0.0
 20
0.0
 30
0.0
  3
*Paper_Space
  1

  0
ENDBLK
  5
1D
330
1B
100
AcDbEntity
 67
     1
  8
0
100
AcDbBlockEnd
  0
BLOCK
  5
3C
330
3B
100
AcDbEntity
  8
0
100
AcDbBlockBegin
  2
グループ
 70
     0
 10
0.0
 20
0.0
 30
0.0
  3
グループ
  1

  0
WIPEOUT
  5
A7
330
3B
100
AcDbEntity
  8
0-2
  6
Continuous
 62
     7
370
    25
 92
      152
310
98000000040000000C0000000E000000120000000C00000016000000000000C20C00000014000000010000006C00000007000000040000006350E9694E6EC1C00C0D77C05F5BB040000000000000000015FAF2DC67BCC0C00C0D77C05F5BB040000000000000000015FAF2DC67BCC0C0D02C0C7537E6AB4000000000000000
310
006350E9694E6EC1C0D02C0C7537E6AB400000000000000000
100
AcDbWipeout
 90
        0
 10
-8924.6126071589
 20
3571.108314877005
 30
0.0
 11
616.2657156564856
 21
0.0
 31
0.0
 12
0.0
 22
616.2657156564856
 32
0.0
 13
1.0
 23
1.0
340
0
 70
     4
280
     1
281
    50
282
    50
283
     0
360
0
 71
     2
 91
        5
 14
-0.5
 24
-0.5
 14
0.0773502691896297
 24
-0.5
 14
0.0773502691896297
 24
0.5
 14
-0.5
 24
0.5
 14
-0.5
 24
-0.5
  0
POLYLINE
  5
A8
330
3B
100
AcDbEntity
  8
0-2
  6
Continuous
 62
     7
370
    25
100
AcDb2dPolyline
 66
     1
 10
0.0
 20
0.0
 30
0.0
 70
     5
 75
     5
  0
VERTEX
  5
A9
330
A8
100
AcDbEntity
  8
0-2
  6
Continuous
 62
     7
370
    25
100
AcDbVertex
100
AcDb2dVertex
 10
-8924.6126071589
 20
4187.37403053349
 30
0.0
  0
VERTEX
  5
AA
330
A8
100
AcDbEntity
  8
0-2
  6
Continuous
 62
     7
370
    25
100
AcDbVertex
100
AcDb2dVertex
 10
-8568.81143033229
 20
4187.37403053349
 30
0.0
  0
VERTEX
  5
AB
330
A8
100
AcDbEntity
  8
0-2
  6
Continuous
 62
     7
370
    25
100
AcDbVertex
100
AcDb2dVertex
 10
-8568.81143033229
 20
3571.108314877005
 30
0.0
  0
VERTEX
  5
AC
330
A8
100
AcDbEntity
  8
0-2
  6
Continuous
 62
     7
370
    25
100
AcDbVertex
100
AcDb2dVertex
 10
-8924.6126071589
 20
3571.108314877005
 30
0.0
  0
SEQEND
  5
AD
330
A8
100
AcDbEntity
  8
0-2
  6
Continuous
 62
     7
370
    25
  0
WIPEOUT
  5
AE
330
3B
100
AcDbEntity
  8
0-2
  6
Continuous
 62
     7
370
    25
 92
      152
310
98000000040000000C0000000E000000120000000C00000016000000000000C20C00000014000000010000006C0000000700000004000000000000000000E0BF000000000000E03F0000000000000000000000000000E03F000000000000E03F0000000000000000000000000000E03FE2FFFFFFFFFFDFBF00000000000000
310
00000000000000E0BFE2FFFFFFFFFFDFBF0000000000000000
100
AcDbWipeout
 90
        0
 10
-0.5
 20
-0.4999999999999983
 30
0.0
 11
1.0
 21
0.0
 31
0.0
 12
0.0
 22
1.0
 32
0.0
 13
1.0
 23
1.0
340
0
 70
     4
280
     1
281
    50
282
    50
283
     0
360
0
 71
     2
 91
        5
 14
-0.5
 24
-0.4999999999999983
 14
0.5
 24
-0.4999999999999983
 14
0.5
 24
0.5
 14
-0.5
 24
0.5
 14
-0.5
 24
-0.4999999999999983
  0
MTEXT
  5
AF
330
3B
100
AcDbEntity
  8
0-2
 62
     7
100
AcDbMText
 10
-8887.823129856706
 20
3971.668950483026
 30
0.0
 40
194.0277777777778
 41
0.0
 71
     1
 72
     1
  1
{\fＭＳ Ｐゴシック|b0|i0|c128|p0;\l特}
 73
     1
 44
0.8762322015334064
  0
ENDBLK
  5
3D
330
3B
100
AcDbEntity
  8
0
100
AcDbBlockEnd
  0
BLOCK
  5
3F
330
3E
100
AcDbEntity
  8
0
100
AcDbBlockBegin
  2
グループ-1
 70
     0
 10
0.0
 20
0.0
 30
0.0
  3
グループ-1
  1

  0
WIPEOUT
  5
D2
330
3E
100
AcDbEntity
  8
0-2
  6
Continuous
 62
     7
370
    25
 92
      152
310
98000000040000000C0000000E000000120000000C00000016000000000000C20C00000014000000010000006C00000007000000040000000B2F08160066C540E43629B2B4EEB24000000000000000005785FEA2E617C640E43629B2B4EEB24000000000000000005785FEA2E617C640404038AC7086B04000000000000000
310
000B2F08160066C540404038AC7086B0400000000000000000
100
AcDbWipeout
 90
        0
 10
10956.0006723623
 20
4230.440127864538
 30
0.0
 11
616.2657156564856
 21
0.0
 31
0.0
 12
0.0
 22
616.2657156564856
 32
0.0
 13
1.0
 23
1.0
340
0
 70
     4
280
     1
281
    50
282
    50
283
     0
360
0
 71
     2
 91
        5
 14
-0.5
 24
-0.5
 14
0.0773502691896226
 24
-0.5
 14
0.0773502691896226
 24
0.5
 14
-0.5
 24
0.5
 14
-0.5
 24
-0.5
  0
POLYLINE
  5
D3
330
3E
100
AcDbEntity
  8
0-2
  6
Continuous
 62
     7
370
    25
100
AcDb2dPolyline
 66
     1
 10
0.0
 20
0.0
 30
0.0
 70
     5
 75
     5
  0
VERTEX
  5
D4
330
D3
100
AcDbEntity
  8
0-2
  6
Continuous
 62
     7
370
    25
100
AcDbVertex
100
AcDb2dVertex
 10
10956.0006723623
 20
4846.705843521024
 30
0.0
  0
VERTEX
  5
D5
330
D3
100
AcDbEntity
  8
0-2
  6
Continuous
 62
     7
370
    25
100
AcDbVertex
100
AcDb2dVertex
 10
11311.80184918891
 20
4846.705843521024
 30
0.0
  0
VERTEX
  5
D6
330
D3
100
AcDbEntity
  8
0-2
  6
Continuous
 62
     7
370
    25
100
AcDbVertex
100
AcDb2dVertex
 10
11311.80184918891
 20
4230.440127864538
 30
0.0
  0
VERTEX
  5
D7
330
D3
100
AcDbEntity
  8
0-2
  6
Continuous
 62
     7
370
    25
100
AcDbVertex
100
AcDb2dVertex
 10
10956.0006723623
 20
4230.440127864538
 30
0.0
  0
SEQEND
  5
D8
330
D3
100
AcDbEntity
  8
0-2
  6
Continuous
 62
     7
370
    25
  0
WIPEOUT
  5
D9
330
3E
100
AcDbEntity
  8
0-2
  6
Continuous
 62
     7
370
    25
 92
      152
310
98000000040000000C0000000E000000120000000C00000016000000000000C20C00000014000000010000006C0000000700000004000000000000000000E0BF000000000000E03F0000000000000000000000000000E03F000000000000E03F0000000000000000000000000000E03F000000000000E0BF00000000000000
310
00000000000000E0BF000000000000E0BF0000000000000000
100
AcDbWipeout
 90
        0
 10
-0.5
 20
-0.5
 30
0.0
 11
1.0
 21
0.0
 31
0.0
 12
0.0
 22
1.0
 32
0.0
 13
1.0
 23
1.0
340
0
 70
     4
280
     1
281
    50
282
    50
283
     0
360
0
 71
     2
 91
        5
 14
-0.5
 24
-0.5
 14
0.5
 24
-0.5
 14
0.5
 24
0.5
 14
-0.5
 24
0.5
 14
-0.5
 24
-0.5
  0
MTEXT
  5
DA
330
3E
100
AcDbEntity
  8
0-2
 62
     7
100
AcDbMText
 10
10992.79014966449
 20
4631.000763470559
 30
0.0
 40
194.0277777777778
 41
0.0
 71
     1
 72
     1
  1
{\fＭＳ Ｐゴシック|b0|i0|c128|p0;\l特}
 73
     1
 44
0.8762322015334064
  0
ENDBLK
  5
40
330
3E
100
AcDbEntity
  8
0
100
AcDbBlockEnd
  0
BLOCK
  5
42
330
41
100
AcDbEntity
  8
0
100
AcDbBlockBegin
  2
*D3
 70
     1
 10
0.0
 20
0.0
 30
0.0
  3
*D3
  1

  0
LINE
  5
DB
330
41
100
AcDbEntity
  8
寸法
  6
Continuous
 62
     0
370
    -2
100
AcDbLine
 10
5129.725488559814
 20
1649.899083024137
 30
0.0
 11
5129.725488559815
 21
349.8990830240028
 31
0.0
  0
LINE
  5
DC
330
41
100
AcDbEntity
  8
寸法
  6
Continuous
 62
     0
370
    -2
100
AcDbLine
 10
-6470.274511440189
 20
1649.899083024137
 30
0.0
 11
-6470.274511440189
 21
349.8990830240028
 31
0.0
  0
LINE
  5
DD
330
41
100
AcDbEntity
  8
寸法
  6
Continuous
 62
     0
370
    -2
100
AcDbLine
 10
4812.225488559815
 20
649.8990830240728
 30
0.0
 11
-297.7323586624079
 21
649.8990830240728
 31
0.0
  0
LINE
  5
DE
330
41
100
AcDbEntity
  8
寸法
  6
Continuous
 62
     0
370
    -2
100
AcDbLine
 10
-6152.774511440189
 20
649.8990830240728
 30
0.0
 11
-1042.816664217964
 21
649.8990830240728
 31
0.0
  0
INSERT
  5
DF
330
41
100
AcDbEntity
  8
寸法
 62
     0
370
    -2
100
AcDbBlockReference
  2
VW_SLASH
 10
5129.725488559815
 20
649.8990830240728
 30
0.0
 41
317.5
 42
317.5
 43
317.5
  0
INSERT
  5
E0
330
41
100
AcDbEntity
  8
寸法
 62
     0
370
    -2
100
AcDbBlockReference
  2
VW_SLASH
 10
-6470.274511440189
 20
649.8990830240728
 30
0.0
 41
317.5
 42
317.5
 43
317.5
 50
180.0
  0
MTEXT
  5
E4
330
41
100
AcDbEntity
  8
寸法
 62
     0
370
     5
100
AcDbMText
 10
-670.2745114401869
 20
649.8990830240728
 30
0.0
 40
194.0277777777778
 41
0.0
 71
     5
 72
     1
  1
\A1;11600
  7
ＭＳ Ｐゴシック
 73
     1
 44
1.0
  0
POINT
  5
E8
330
41
100
AcDbEntity
  8
Defpoints
 62
     0
100
AcDbPoint
 10
5129.725488559814
 20
1849.960783142407
 30
0.0
  0
POINT
  5
E9
330
41
100
AcDbEntity
  8
Defpoints
 62
     0
100
AcDbPoint
 10
-6470.274511440189
 20
1849.960783142407
 30
0.0
  0
POINT
  5
EA
330
41
100
AcDbEntity
  8
Defpoints
 62
     0
100
AcDbPoint
 10
-6470.274511440189
 20
649.8990830240728
 30
0.0
  0
ENDBLK
  5
43
330
41
100
AcDbEntity
  8
0
100
AcDbBlockEnd
  0
BLOCK
  5
45
330
44
100
AcDbEntity
  8
0
100
AcDbBlockBegin
  2
*D4
 70
     1
 10
0.0
 20
0.0
 30
0.0
  3
*D4
  1

  0
LINE
  5
ED
330
44
100
AcDbEntity
  8
寸法
  6
Continuous
 62
     0
370
    -2
100
AcDbLine
 10
5688.987262230959
 20
-3865.494128241095
 30
0.0
 11
6811.295645095393
 21
-3865.494128241095
 31
0.0
  0
LINE
  5
EE
330
44
100
AcDbEntity
  8
寸法
  6
Continuous
 62
     0
370
    -2
100
AcDbLine
 10
5688.987262230959
 20
1674.505871758905
 30
0.0
 11
6811.295645095393
 21
1674.505871758906
 31
0.0
  0
LINE
  5
EF
330
44
100
AcDbEntity
  8
寸法
  6
Continuous
 62
     0
370
    -2
100
AcDbLine
 10
6511.295645095322
 20
-3547.994128241095
 30
0.0
 11
6511.295645095322
 21
1357.005871758906
 31
0.0
  0
INSERT
  5
F0
330
44
100
AcDbEntity
  8
寸法
 62
     0
370
    -2
100
AcDbBlockReference
  2
VW_SLASH
 10
6511.295645095322
 20
-3865.494128241095
 30
0.0
 41
317.5
 42
317.5
 43
317.5
 50
270.0
  0
INSERT
  5
F1
330
44
100
AcDbEntity
  8
寸法
 62
     0
370
    -2
100
AcDbBlockReference
  2
VW_SLASH
 10
6511.295645095322
 20
1674.505871758906
 30
0.0
 41
317.5
 42
317.5
 43
317.5
 50
90.0
  0
MTEXT
  5
F2
330
44
100
AcDbEntity
  8
寸法
 62
     0
370
     5
100
AcDbMText
 10
6113.796686761919
 20
-1095.494128241095
 30
0.0
 40
194.0277777777778
 41
0.0
 71
     5
 72
     1
  1
\A1;5540
  7
ＭＳ Ｐゴシック
 11
0.0
 21
1.0
 31
0.0
 73
     1
 44
1.0
  0
POINT
  5
F6
330
44
100
AcDbEntity
  8
Defpoints
 62
     0
100
AcDbPoint
 10
5488.987262230998
 20
-3865.494128241095
 30
0.0
  0
POINT
  5
FA
330
44
100
AcDbEntity
  8
Defpoints
 62
     0
100
AcDbPoint
 10
5488.987262230998
 20
1674.505871758905
 30
0.0
  0
POINT
  5
FB
330
44
100
AcDbEntity
  8
Defpoints
 62
     0
100
AcDbPoint
 10
6511.295645095322
 20
1674.505871758906
 30
0.0
  0
ENDBLK
  5
46
330
44
100
AcDbEntity
  8
0
100
AcDbBlockEnd
  0
BLOCK
  5
48
330
47
100
AcDbEntity
  8
0
100
AcDbBlockBegin
  2
*D5
 70
     1
 10
0.0
 20
0.0
 30
0.0
  3
*D5
  1

  0
LINE
  5
FF
330
47
100
AcDbEntity
  8
寸法
  6
Continuous
 62
     0
370
    -2
100
AcDbLine
 10
-3170.273990957412
 20
-4065.494128241057
 30
0.0
 11
-3170.273990957412
 21
-5215.568217238002
 31
0.0
  0
LINE
  5
100
330
47
100
AcDbEntity
  8
寸法
  6
Continuous
 62
     0
370
    -2
100
AcDbLine
 10
-6670.273990957413
 20
-4065.494128241057
 30
0.0
 11
-6670.273990957413
 21
-5215.568217238002
 31
0.0
  0
LINE
  5
101
330
47
100
AcDbEntity
  8
寸法
  6
Continuous
 62
     0
370
    -2
100
AcDbLine
 10
-3487.773990957412
 20
-4915.568217237932
 30
0.0
 11
-4438.289496280861
 21
-4915.568217237932
 31
0.0
  0
LINE
  5
102
330
47
100
AcDbEntity
  8
寸法
  6
Continuous
 62
     0
370
    -2
100
AcDbLine
 10
-6352.773990957413
 20
-4915.568217237932
 30
0.0
 11
-5057.643801836416
 21
-4915.568217237932
 31
0.0
  0
INSERT
  5
103
330
47
100
AcDbEntity
  8
寸法
 62
     0
370
    -2
100
AcDbBlockReference
  2
VW_SLASH
 10
-3170.273990957412
 20
-4915.568217237932
 30
0.0
 41
317.5
 42
317.5
 43
317.5
  0
INSERT
  5
104
330
47
100
AcDbEntity
  8
寸法
 62
     0
370
    -2
100
AcDbBlockReference
  2
VW_SLASH
 10
-6670.273990957413
 20
-4915.568217237932
 30
0.0
 41
317.5
 42
317.5
 43
317.5
 50
180.0
  0
MTEXT
  5
108
330
47
100
AcDbEntity
  8
寸法
 62
     0
370
     5
100
AcDbMText
 10
-4747.966649058639
 20
-4915.568217237932
 30
0.0
 40
194.0277777777778
 41
0.0
 71
     5
 72
     1
  1
\A1;3500
  7
ＭＳ Ｐゴシック
 73
     1
 44
1.0
  0
POINT
  5
10C
330
47
100
AcDbEntity
  8
Defpoints
 62
     0
100
AcDbPoint
 10
-3170.273990957412
 20
-3865.494128241095
 30
0.0
  0
POINT
  5
10D
330
47
100
AcDbEntity
  8
Defpoints
 62
     0
100
AcDbPoint
 10
-6670.273990957413
 20
-3865.494128241095
 30
0.0
  0
POINT
  5
10E
330
47
100
AcDbEntity
  8
Defpoints
 62
     0
100
AcDbPoint
 10
-6670.273990957413
 20
-4915.568217237932
 30
0.0
  0
ENDBLK
  5
49
330
47
100
AcDbEntity
  8
0
100
AcDbBlockEnd
  0
BLOCK
  5
4B
330
4A
100
AcDbEntity
  8
0
100
AcDbBlockBegin
  2
*D6
 70
     1
 10
0.0
 20
0.0
 30
0.0
  3
*D6
  1

  0
LINE
  5
111
330
4A
100
AcDbEntity
  8
寸法
  6
Continuous
 62
     0
370
    -2
100
AcDbLine
 10
1829.724968077034
 20
-4065.494128241056
 30
0.0
 11
1829.724968077035
 21
-5215.568217238001
 31
0.0
  0
LINE
  5
112
330
4A
100
AcDbEntity
  8
寸法
  6
Continuous
 62
     0
370
    -2
100
AcDbLine
 10
-3170.273990957412
 20
-4065.494128241056
 30
0.0
 11
-3170.273990957412
 21
-5215.568217238001
 31
0.0
  0
LINE
  5
113
330
4A
100
AcDbEntity
  8
寸法
  6
Continuous
 62
     0
370
    -2
100
AcDbLine
 10
1512.224968077035
 20
-4915.568217237931
 30
0.0
 11
-360.5973586624104
 21
-4915.568217237931
 31
0.0
  0
LINE
  5
114
330
4A
100
AcDbEntity
  8
寸法
  6
Continuous
 62
     0
370
    -2
100
AcDbLine
 10
-2852.773990957412
 20
-4915.568217237931
 30
0.0
 11
-979.9516642179665
 21
-4915.568217237931
 31
0.0
  0
INSERT
  5
115
330
4A
100
AcDbEntity
  8
寸法
 62
     0
370
    -2
100
AcDbBlockReference
  2
VW_SLASH
 10
1829.724968077035
 20
-4915.568217237931
 30
0.0
 41
317.5
 42
317.5
 43
317.5
  0
INSERT
  5
116
330
4A
100
AcDbEntity
  8
寸法
 62
     0
370
    -2
100
AcDbBlockReference
  2
VW_SLASH
 10
-3170.273990957412
 20
-4915.568217237931
 30
0.0
 41
317.5
 42
317.5
 43
317.5
 50
180.0
  0
MTEXT
  5
11A
330
4A
100
AcDbEntity
  8
寸法
 62
     0
370
     5
100
AcDbMText
 10
-670.2745114401887
 20
-4915.568217237931
 30
0.0
 40
194.0277777777778
 41
0.0
 71
     5
 72
     1
  1
\A1;5000
  7
ＭＳ Ｐゴシック
 73
     1
 44
1.0
  0
POINT
  5
11E
330
4A
100
AcDbEntity
  8
Defpoints
 62
     0
100
AcDbPoint
 10
1829.724968077034
 20
-3865.494128241095
 30
0.0
  0
POINT
  5
11F
330
4A
100
AcDbEntity
  8
Defpoints
 62
     0
100
AcDbPoint
 10
-3170.273990957412
 20
-3865.494128241095
 30
0.0
  0
POINT
  5
120
330
4A
100
AcDbEntity
  8
Defpoints
 62
     0
100
AcDbPoint
 10
-3170.273990957412
 20
-4915.568217237931
 30
0.0
  0
ENDBLK
  5
4C
330
4A
100
AcDbEntity
  8
0
100
AcDbBlockEnd
  0
BLOCK
  5
4E
330
4D
100
AcDbEntity
  8
0
100
AcDbBlockBegin
  2
*D7
 70
     1
 10
0.0
 20
0.0
 30
0.0
  3
*D7
  1

  0
LINE
  5
123
330
4D
100
AcDbEntity
  8
寸法
  6
Continuous
 62
     0
370
    -2
100
AcDbLine
 10
5329.724968077038
 20
-4065.494128241056
 30
0.0
 11
5329.724968077038
 21
-5215.568217238001
 31
0.0
  0
LINE
  5
124
330
4D
100
AcDbEntity
  8
寸法
  6
Continuous
 62
     0
370
    -2
100
AcDbLine
 10
1829.724968077034
 20
-4065.494128241056
 30
0.0
 11
1829.724968077034
 21
-5215.568217238001
 31
0.0
  0
LINE
  5
125
330
4D
100
AcDbEntity
  8
寸法
  6
Continuous
 62
     0
370
    -2
100
AcDbLine
 10
5012.224968077038
 20
-4915.568217237931
 30
0.0
 11
3889.402120854815
 21
-4915.568217237931
 31
0.0
  0
LINE
  5
126
330
4D
100
AcDbEntity
  8
寸法
  6
Continuous
 62
     0
370
    -2
100
AcDbLine
 10
2147.224968077035
 20
-4915.568217237931
 30
0.0
 11
3270.047815299259
 21
-4915.568217237931
 31
0.0
  0
INSERT
  5
127
330
4D
100
AcDbEntity
  8
寸法
 62
     0
370
    -2
100
AcDbBlockReference
  2
VW_SLASH
 10
5329.724968077038
 20
-4915.568217237931
 30
0.0
 41
317.5
 42
317.5
 43
317.5
  0
INSERT
  5
128
330
4D
100
AcDbEntity
  8
寸法
 62
     0
370
    -2
100
AcDbBlockReference
  2
VW_SLASH
 10
1829.724968077034
 20
-4915.568217237931
 30
0.0
 41
317.5
 42
317.5
 43
317.5
 50
180.0
  0
MTEXT
  5
12C
330
4D
100
AcDbEntity
  8
寸法
 62
     0
370
     5
100
AcDbMText
 10
3579.724968077036
 20
-4915.568217237931
 30
0.0
 40
194.0277777777778
 41
0.0
 71
     5
 72
     1
  1
\A1;3500
  7
ＭＳ Ｐゴシック
 73
     1
 44
1.0
  0
POINT
  5
130
330
4D
100
AcDbEntity
  8
Defpoints
 62
     0
100
AcDbPoint
 10
5329.724968077038
 20
-3865.494128241095
 30
0.0
  0
POINT
  5
131
330
4D
100
AcDbEntity
  8
Defpoints
 62
     0
100
AcDbPoint
 10
1829.724968077034
 20
-3865.494128241095
 30
0.0
  0
POINT
  5
132
330
4D
100
AcDbEntity
  8
Defpoints
 62
     0
100
AcDbPoint
 10
1829.724968077034
 20
-4915.568217237931
 30
0.0
  0
ENDBLK
  5
4F
330
4D
100
AcDbEntity
  8
0
100
AcDbBlockEnd
  0
BLOCK
  5
51
330
50
100
AcDbEntity
  8
0
100
AcDbBlockBegin
  2
グループ-2
 70
     0
 10
0.0
 20
0.0
 30
0.0
  3
グループ-2
  1

  0
LINE
  5
135
330
50
100
AcDbEntity
  8
0-8 文字
  6
Continuous
 62
   253
370
     5
100
AcDbLine
 10
8716.335031067636
 20
5549.082687798153
 30
0.0
 11
8716.335031067636
 21
6009.083195782456
 31
0.0
  0
LINE
  5
136
330
50
100
AcDbEntity
  8
0-8 文字
  6
Continuous
 62
   253
370
     5
100
AcDbLine
 10
9316.3351288476
 20
5549.082687798153
 30
0.0
 11
9316.3351288476
 21
6009.083195782456
 31
0.0
  0
LINE
  5
137
330
50
100
AcDbEntity
  8
0-8 文字
  6
Continuous
 62
   253
370
     5
100
AcDbLine
 10
10816.33537329751
 20
6009.083195782456
 30
0.0
 11
10816.33537329751
 21
5549.082687798153
 31
0.0
  0
LINE
  5
138
330
50
100
AcDbEntity
  8
0-8 文字
  6
Continuous
 62
   253
370
     5
100
AcDbLine
 10
10316.33529181421
 20
6009.083195782456
 30
0.0
 11
10316.33529181421
 21
5549.082687798153
 31
0.0
  0
LINE
  5
139
330
50
100
AcDbEntity
  8
0-8 文字
  6
Continuous
 62
   253
370
     5
100
AcDbLine
 10
9816.335210330904
 20
6009.083195782456
 30
0.0
 11
9816.335210330904
 21
5549.082687798153
 31
0.0
  0
LINE
  5
13A
330
50
100
AcDbEntity
  8
0-8 文字
  6
Continuous
 62
   253
370
     5
100
AcDbLine
 10
8716.335031067636
 20
6009.083195782456
 30
0.0
 11
11316.33545478081
 21
6009.083195782456
 31
0.0
  0
LINE
  5
13B
330
50
100
AcDbEntity
  8
0-8 文字
  6
Continuous
 62
   253
370
     5
100
AcDbLine
 10
8716.335031067636
 20
5549.082687798153
 30
0.0
 11
11316.33545478081
 21
5549.082687798153
 31
0.0
  0
LINE
  5
13C
330
50
100
AcDbEntity
  8
0-8 文字
  6
Continuous
 62
   253
370
     5
100
AcDbLine
 10
11316.33545478081
 20
6009.083195782456
 30
0.0
 11
11316.33545478081
 21
5549.082687798153
 31
0.0
  0
LINE
  5
13D
330
50
100
AcDbEntity
  8
0-8 文字
  6
Continuous
 62
   253
370
     5
100
AcDbLine
 10
8716.335031067636
 20
6108.30540693627
 30
0.0
 11
8716.335031067636
 21
6568.305914920584
 31
0.0
  0
LINE
  5
13E
330
50
100
AcDbEntity
  8
0-8 文字
  6
Continuous
 62
   253
370
     5
100
AcDbLine
 10
9316.3351288476
 20
6108.30540693627
 30
0.0
 11
9316.3351288476
 21
6568.305914920584
 31
0.0
  0
LINE
  5
13F
330
50
100
AcDbEntity
  8
0-8 文字
  6
Continuous
 62
   253
370
     5
100
AcDbLine
 10
8716.335031067636
 20
6568.305914920584
 30
0.0
 11
10816.33537329751
 21
6568.305914920584
 31
0.0
  0
LINE
  5
140
330
50
100
AcDbEntity
  8
0-8 文字
  6
Continuous
 62
   253
370
     5
100
AcDbLine
 10
10816.33537329751
 20
6568.305914920584
 30
0.0
 11
10816.33537329751
 21
6108.30540693627
 31
0.0
  0
LINE
  5
141
330
50
100
AcDbEntity
  8
0-8 文字
  6
Continuous
 62
   253
370
     5
100
AcDbLine
 10
10316.33529181421
 20
6568.305914920584
 30
0.0
 11
10316.33529181421
 21
6108.30540693627
 31
0.0
  0
LINE
  5
142
330
50
100
AcDbEntity
  8
0-8 文字
  6
Continuous
 62
   253
370
     5
100
AcDbLine
 10
9816.335210330904
 20
6568.305914920584
 30
0.0
 11
9816.335210330904
 21
6108.30540693627
 31
0.0
  0
LINE
  5
143
330
50
100
AcDbEntity
  8
0-8 文字
  6
Continuous
 62
   253
370
     5
100
AcDbLine
 10
8716.335031067636
 20
6108.30540693627
 30
0.0
 11
10816.33537329751
 21
6108.30540693627
 31
0.0
  0
MTEXT
  5
144
330
50
100
AcDbEntity
  8
0-8 文字
 62
   253
100
AcDbMText
 10
8916.335223270806
 20
5825.958771993835
 30
0.0
 40
171.875
 41
0.0
 71
     1
 72
     1
  1
{\fＭＳ Ｐゴシック|b0|i0|c128|p0;\lＬＨ}
 73
     1
 44
0.8762322015334064
  0
MTEXT
  5
145
330
50
100
AcDbEntity
  8
0-8 文字
 62
   253
100
AcDbMText
 10
8881.335206316598
 20
6385.18149113196
 30
0.0
 40
171.875
 41
0.0
 71
     1
 72
     1
  1
{\fＭＳ Ｐゴシック|b0|i0|c128|p0;\lＵＨ}
 73
     1
 44
0.8762322015334064
  0
MTEXT
  5
146
330
50
100
AcDbEntity
  8
0-8 文字
 62
   253
100
AcDbMText
 10
9416.335454444026
 20
5816.582616193882
 30
0.0
 40
137.5
 41
0.0
 71
     1
 72
     1
  1
{\fＭＳ Ｐゴシック|b0|i0|c128|p0;\l#72}
 73
     1
 44
0.8762322015334064
  0
MTEXT
  5
147
330
50
100
AcDbEntity
  8
0-8 文字
 62
   253
100
AcDbMText
 10
9416.335454444026
 20
6375.805335332003
 30
0.0
 40
137.5
 41
0.0
 71
     1
 72
     1
  1
{\fＭＳ Ｐゴシック|b0|i0|c128|p0;\l#72}
 73
     1
 44
0.8762322015334064
  0
MTEXT
  5
148
330
50
100
AcDbEntity
  8
0-8 文字
 62
   253
100
AcDbMText
 10
9916.335226627565
 20
5816.582616193882
 30
0.0
 40
137.5
 41
0.0
 71
     1
 72
     1
  1
{\fＭＳ Ｐゴシック|b0|i0|c128|p0;\l#78}
 73
     1
 44
0.8762322015334064
  0
MTEXT
  5
149
330
50
100
AcDbEntity
  8
0-8 文字
 62
   253
100
AcDbMText
 10
10416.33561741063
 20
5816.582616193882
 30
0.0
 40
137.5
 41
0.0
 71
     1
 72
     1
  1
{\fＭＳ Ｐゴシック|b0|i0|c128|p0;\l#59}
 73
     1
 44
0.8762322015334064
  0
MTEXT
  5
14A
330
50
100
AcDbEntity
  8
0-8 文字
 62
   253
100
AcDbMText
 10
10916.33538959417
 20
5816.582616193882
 30
0.0
 40
137.5
 41
0.0
 71
     1
 72
     1
  1
{\fＭＳ Ｐゴシック|b0|i0|c128|p0;\l#22}
 73
     1
 44
0.8762322015334064
  0
MTEXT
  5
14B
330
50
100
AcDbEntity
  8
0-8 文字
 62
   253
100
AcDbMText
 10
9916.335226627565
 20
6375.805335332003
 30
0.0
 40
137.5
 41
0.0
 71
     1
 72
     1
  1
{\fＭＳ Ｐゴシック|b0|i0|c128|p0;\l#63}
 73
     1
 44
0.8762322015334064
  0
MTEXT
  5
14C
330
50
100
AcDbEntity
  8
0-8 文字
 62
   253
100
AcDbMText
 10
10416.33561741063
 20
6375.805335332003
 30
0.0
 40
137.5
 41
0.0
 71
     1
 72
     1
  1
{\fＭＳ Ｐゴシック|b0|i0|c128|p0;\l#22}
 73
     1
 44
0.8762322015334064
  0
ENDBLK
  5
52
330
50
100
AcDbEntity
  8
0
100
AcDbBlockEnd
  0
BLOCK
  5
54
330
53
100
AcDbEntity
  8
0
100
AcDbBlockBegin
  2
グループ-3
 70
     0
 10
0.0
 20
0.0
 30
0.0
  3
グループ-3
  1

  0
LINE
  5
14D
330
53
100
AcDbEntity
  8
0-8 文字
  6
Continuous
 62
     7
370
     5
100
AcDbLine
 10
7452.033301119472
 20
2893.528467840824
 30
0.0
 11
7452.033301119472
 21
7643.529087282328
 31
0.0
  0
LINE
  5
14E
330
53
100
AcDbEntity
  8
0-8 文字
  6
Continuous
 62
     7
370
     5
100
AcDbLine
 10
7752.031803510629
 20
7643.529087282328
 30
0.0
 11
7452.033301119472
 21
7643.529087282328
 31
0.0
  0
LINE
  5
14F
330
53
100
AcDbEntity
  8
0-8 文字
  6
Continuous
 62
     7
370
     5
100
AcDbLine
 10
7752.033659309219
 20
7343.528110493051
 30
0.0
 11
7452.033301119472
 21
7343.528110493051
 31
0.0
  0
LINE
  5
150
330
53
100
AcDbEntity
  8
0-8 文字
  6
Continuous
 62
     7
370
     5
100
AcDbLine
 10
7752.033659309219
 20
7093.527296501987
 30
0.0
 11
7452.033301119472
 21
7093.527296501987
 31
0.0
  0
LINE
  5
151
330
53
100
AcDbEntity
  8
0-8 文字
  6
Continuous
 62
     7
370
     5
100
AcDbLine
 10
7752.033659309219
 20
6043.526352137633
 30
0.0
 11
7452.033301119472
 21
6043.526352137633
 31
0.0
  0
LINE
  5
152
330
53
100
AcDbEntity
  8
0-8 文字
  6
Continuous
 62
     7
370
     5
100
AcDbLine
 10
7752.031803510629
 20
5143.525896167925
 30
0.0
 11
7452.032063920412
 21
5143.525896167925
 31
0.0
  0
LINE
  5
153
330
53
100
AcDbEntity
  8
0-8 文字
  6
Continuous
 62
     7
370
     5
100
AcDbLine
 10
7752.033659309219
 20
4593.526579785703
 30
0.0
 11
7452.033301119472
 21
4593.526579785703
 31
0.0
  0
LINE
  5
154
330
53
100
AcDbEntity
  8
0-8 文字
  6
Continuous
 62
     7
370
     5
100
AcDbLine
 10
7752.033659309219
 20
4093.527426201694
 30
0.0
 11
7452.033301119472
 21
4093.527426201694
 31
0.0
  0
LINE
  5
155
330
53
100
AcDbEntity
  8
0-8 文字
  6
Continuous
 62
     7
370
     5
100
AcDbLine
 10
7752.033659309219
 20
3693.52859821411
 30
0.0
 11
7452.033301119472
 21
3693.52859821411
 31
0.0
  0
LINE
  5
156
330
53
100
AcDbEntity
  8
0-8 文字
  6
Continuous
 62
     7
370
     5
100
AcDbLine
 10
7752.033659309219
 20
2893.528467840824
 30
0.0
 11
7452.033301119472
 21
2893.528467840824
 31
0.0
  0
MTEXT
  5
157
330
53
100
AcDbEntity
  8
0-8 文字
 62
     7
100
AcDbMText
 10
7852.033366306115
 20
2965.403142244399
 30
0.0
 40
171.875
 41
0.0
 71
     1
 72
     1
  1
{\fＭＳ Ｐゴシック|b0|i0|c128|p0;\l緞帳}
 73
     1
 44
0.8762322015334064
  0
MTEXT
  5
158
330
53
100
AcDbEntity
  8
0-8 文字
 62
     7
100
AcDbMText
 10
7835.192160609441
 20
4165.402100605268
 30
0.0
 40
171.875
 41
0.0
 71
     1
 72
     1
  1
{\fＭＳ Ｐゴシック|b0|i0|c128|p0;\l１バトン}
 73
     1
 44
0.8762322015334064
  0
MTEXT
  5
159
330
53
100
AcDbEntity
  8
0-8 文字
 62
     7
100
AcDbMText
 10
7835.192160609441
 20
7165.401970905561
 30
0.0
 40
171.875
 41
0.0
 71
     1
 72
     1
  1
{\fＭＳ Ｐゴシック|b0|i0|c128|p0;\l２バトン}
 73
     1
 44
0.8762322015334064
  0
MTEXT
  5
15A
330
53
100
AcDbEntity
  8
0-8 文字
 62
     7
100
AcDbMText
 10
7838.437009441878
 20
7415.402784896625
 30
0.0
 40
171.875
 41
0.0
 71
     1
 72
     1
  1
{\fＭＳ Ｐゴシック|b0|i0|c128|p0;\l引割幕}
 73
     1
 44
0.8762322015334064
  0
MTEXT
  5
15B
330
53
100
AcDbEntity
  8
0-8 文字
 62
     7
100
AcDbMText
 10
7835.192160609441
 20
7715.403761685902
 30
0.0
 40
171.875
 41
0.0
 71
     1
 72
     1
  1
{\fＭＳ Ｐゴシック|b0|i0|c128|p0;\lホリゾント幕}
 73
     1
 44
0.8762322015334064
  0
MTEXT
  5
15C
330
53
100
AcDbEntity
  8
0-8 文字
 62
     7
100
AcDbMText
 10
7855.558146427165
 20
5205.745469109697
 30
0.0
 40
171.875
 41
0.0
 71
     1
 72
     1
  1
{\fＭＳ Ｐゴシック|b0|i0|c128|p0;\l袖幕}
 73
     1
 44
0.8762322015334064
  0
MTEXT
  5
15D
330
53
100
AcDbEntity
  8
0-8 文字
 62
     7
100
AcDbMText
 10
7835.192160609441
 20
6115.401026541214
 30
0.0
 40
171.875
 41
0.0
 71
     1
 72
     1
  1
{\fＭＳ Ｐゴシック|b0|i0|c128|p0;\lＵＨ}
 73
     1
 44
0.8762322015334064
  0
MTEXT
  5
15E
330
53
100
AcDbEntity
  8
0-8 文字
 62
     7
100
AcDbMText
 10
7844.207163647164
 20
4665.401254189277
 30
0.0
 40
171.875
 41
0.0
 71
     1
 72
     1
  1
{\fＭＳ Ｐゴシック|b0|i0|c128|p0;\l１ＳＵＳ（１２回路＋直２回路）}
 73
     1
 44
0.8762322015334064
  0
MTEXT
  5
15F
330
53
100
AcDbEntity
  8
0-8 文字
 62
     7
100
AcDbMText
 10
7835.192160609441
 20
3765.403272617685
 30
0.0
 40
171.875
 41
0.0
 71
     1
 72
     1
  1
{\fＭＳ Ｐゴシック|b0|i0|c128|p0;\lＢＯ}
 73
     1
 44
0.8762322015334064
  0
ENDBLK
  5
55
330
53
100
AcDbEntity
  8
0
100
AcDbBlockEnd
  0
BLOCK
  5
57
330
56
100
AcDbEntity
  8
0
100
AcDbBlockBegin
  2
グループ-4
 70
     0
 10
0.0
 20
0.0
 30
0.0
  3
グループ-4
  1

  0
WIPEOUT
  5
160
330
56
100
AcDbEntity
  8
0-2
  6
Continuous
 62
   251
370
     5
 92
      152
310
98000000040000000C0000000E000000120000000C00000016000000000000C20C00000014000000010000006C00000007000000040000002D5A723F5FB4B04018F8DE0146D8B5400000000000000000687AF209CF26BB4078C08D8F5AF6AD400000000000000000A9B92144E6EFBA4078BEE592334FAD4000000000000000
310
006D99A179767DB04018F78A83B284B5400000000000000000
100
AcDbWipeout
 90
        0
 10
4221.462793445548
 20
3751.600730113507
 30
0.0
 11
2729.345952086379
 21
0.0
 31
0.0
 12
0.0
 22
2729.345952086379
 32
0.0
 13
1.0
 23
1.0
340
0
 70
     4
280
     1
281
    50
282
    50
283
     0
360
0
 71
     2
 91
        5
 14
-0.4798818950078079
 24
-0.1744006689691431
 14
0.4999999999999996
 24
0.4693786907810069
 14
0.4798818950078072
 24
0.5000000000000002
 14
-0.5000000000000004
 24
-0.1437793597501495
 14
-0.4798818950078079
 24
-0.1744006689691431
  0
POLYLINE
  5
161
330
56
100
AcDbEntity
  8
0-2
  6
Continuous
 62
   251
370
     5
100
AcDb2dPolyline
 66
     1
 10
0.0
 20
0.0
 30
0.0
 70
     5
 75
     5
  0
VERTEX
  5
162
330
161
100
AcDbEntity
  8
0-2
  6
Continuous
 62
   251
370
     5
100
AcDbVertex
100
AcDb2dVertex
 10
4276.372061869637
 20
5592.273466048784
 30
0.0
  0
VERTEX
  5
163
330
161
100
AcDbEntity
  8
0-2
  6
Continuous
 62
   251
370
     5
100
AcDbVertex
100
AcDb2dVertex
 10
6950.808745531926
 20
3835.176876477952
 30
0.0
  0
VERTEX
  5
164
330
161
100
AcDbEntity
  8
0-2
  6
Continuous
 62
   251
370
     5
100
AcDbVertex
100
AcDb2dVertex
 10
6895.899477107837
 20
3751.600730113507
 30
0.0
  0
VERTEX
  5
165
330
161
100
AcDbEntity
  8
0-2
  6
Continuous
 62
   251
370
     5
100
AcDbVertex
100
AcDb2dVertex
 10
4221.462793445548
 20
5508.697319684339
 30
0.0
  0
SEQEND
  5
166
330
161
100
AcDbEntity
  8
0-2
  6
Continuous
 62
   251
370
     5
  0
LINE
  5
167
330
56
100
AcDbEntity
  8
0-2
  6
Continuous
 62
   251
370
     5
100
AcDbLine
 10
6923.354111319882
 20
3793.388803295729
 30
0.0
 11
4248.917427657592
 21
5550.485392866562
 31
0.0
  0
SPLINE
  5
168
330
56
100
AcDbEntity
  8
0-2
  6
Continuous
 62
   251
370
     5
100
AcDbSpline
210
0.0
220
0.0
230
1.0
 70
     8
 71
     2
 72
    20
 73
    17
 74
     0
 42
0.000000001
 43
0.0000000000001
 40
0.0
 40
0.0
 40
0.0
 40
1.0
 40
2.0
 40
3.0
 40
4.0
 40
5.0
 40
6.0
 40
7.0
 40
8.0
 40
9.0
 40
10.0
 40
11.0
 40
12.0
 40
13.0
 40
14.0
 40
15.0
 40
15.0
 40
15.0
 10
4314.198510171011
 20
5582.076187359547
 30
0.0
 10
4362.061661783284
 20
5290.690366812549
 30
0.0
 10
4699.432686626851
 20
5439.957883694158
 30
0.0
 10
4696.366247241071
 20
5071.053293116194
 30
0.0
 10
5033.737272084638
 20
5220.3208099978
 30
0.0
 10
5013.101942834133
 20
4862.958925460494
 30
0.0
 10
5368.041857542425
 20
5000.683736301449
 30
0.0
 10
5364.975418156644
 20
4631.779145723485
 30
0.0
 10
5702.346443000208
 20
4781.046662605095
 30
0.0
 10
5681.711113749703
 20
4423.684778067785
 30
0.0
 10
6036.651028457994
 20
4561.40958890874
 30
0.0
 10
6033.584589072214
 20
4192.504998330776
 30
0.0
 10
6370.955613915785
 20
4341.772515212382
 30
0.0
 10
6367.889174530004
 20
3972.867924634422
 30
0.0
 10
6705.260199373572
 20
4122.135441516031
 30
0.0
 10
6684.018954259436
 20
3754.280327998986
 30
0.0
 10
6917.52637629159
 20
3871.697869922144
 30
0.0
  0
ENDBLK
  5
58
330
56
100
AcDbEntity
  8
0
100
AcDbBlockEnd
  0
BLOCK
  5
5A
330
59
100
AcDbEntity
  8
0
100
AcDbBlockBegin
  2
グループ-5
 70
     0
 10
0.0
 20
0.0
 30
0.0
  3
グループ-5
  1

  0
WIPEOUT
  5
169
330
59
100
AcDbEntity
  8
0-2
  6
Continuous
 62
   251
370
     5
 92
      152
310
98000000040000000C0000000E000000120000000C00000016000000000000C20C00000014000000010000006C000000070000000400000021B9C58B75F3B5C018F8DE0146D8B5400000000000000000AFEC22ABF232C0C078C08D8F5AF6AD4000000000000000004F8C3A487E17C0C078BEE592334FAD4000000000000000
310
0063F8F4C58CBCB5C018F78A83B284B5400000000000000000
100
AcDbWipeout
 90
        0
 10
-8293.895847669191
 20
3751.600730113507
 30
0.0
 11
2729.345952086379
 21
0.0
 31
0.0
 12
0.0
 22
2729.345952086379
 32
0.0
 13
1.0
 23
1.0
340
0
 70
     4
280
     1
281
    50
282
    50
283
     0
360
0
 71
     2
 91
        5
 14
0.4798818950078085
 24
-0.1744006689691431
 14
-0.4999999999999996
 24
0.4693786907810069
 14
-0.4798818950078072
 24
0.5000000000000002
 14
0.5000000000000004
 24
-0.1437793597501495
 14
0.4798818950078085
 24
-0.1744006689691431
  0
POLYLINE
  5
16A
330
59
100
AcDbEntity
  8
0-2
  6
Continuous
 62
   251
370
     5
100
AcDb2dPolyline
 66
     1
 10
0.0
 20
0.0
 30
0.0
 70
     5
 75
     5
  0
VERTEX
  5
16B
330
16A
100
AcDbEntity
  8
0-2
  6
Continuous
 62
   251
370
     5
100
AcDbVertex
100
AcDb2dVertex
 10
-5619.4591640069
 20
5592.273466048784
 30
0.0
  0
VERTEX
  5
16C
330
16A
100
AcDbEntity
  8
0-2
  6
Continuous
 62
   251
370
     5
100
AcDbVertex
100
AcDb2dVertex
 10
-8293.895847669191
 20
3835.176876477952
 30
0.0
  0
VERTEX
  5
16D
330
16A
100
AcDbEntity
  8
0-2
  6
Continuous
 62
   251
370
     5
100
AcDbVertex
100
AcDb2dVertex
 10
-8238.986579245102
 20
3751.600730113507
 30
0.0
  0
VERTEX
  5
16E
330
16A
100
AcDbEntity
  8
0-2
  6
Continuous
 62
   251
370
     5
100
AcDbVertex
100
AcDb2dVertex
 10
-5564.549895582812
 20
5508.697319684339
 30
0.0
  0
SEQEND
  5
16F
330
16A
100
AcDbEntity
  8
0-2
  6
Continuous
 62
   251
370
     5
  0
LINE
  5
170
330
59
100
AcDbEntity
  8
0-2
  6
Continuous
 62
   251
370
     5
100
AcDbLine
 10
-8266.441213457147
 20
3793.388803295729
 30
0.0
 11
-5592.004529794855
 21
5550.485392866562
 31
0.0
  0
SPLINE
  5
171
330
59
100
AcDbEntity
  8
0-2
  6
Continuous
 62
   251
370
     5
100
AcDbSpline
210
0.0
220
0.0
230
1.0
 70
     8
 71
     2
 72
    20
 73
    17
 74
     0
 42
0.000000001
 43
0.0000000000001
 40
0.0
 40
0.0
 40
0.0
 40
1.0
 40
2.0
 40
3.0
 40
4.0
 40
5.0
 40
6.0
 40
7.0
 40
8.0
 40
9.0
 40
10.0
 40
11.0
 40
12.0
 40
13.0
 40
14.0
 40
15.0
 40
15.0
 40
15.0
 10
-5657.285612308274
 20
5582.076187359547
 30
0.0
 10
-5705.148763920549
 20
5290.690366812549
 30
0.0
 10
-6042.519788764114
 20
5439.957883694158
 30
0.0
 10
-6039.453349378334
 20
5071.053293116194
 30
0.0
 10
-6376.824374221901
 20
5220.3208099978
 30
0.0
 10
-6356.189044971396
 20
4862.958925460494
 30
0.0
 10
-6711.128959679688
 20
5000.683736301449
 30
0.0
 10
-6708.062520293907
 20
4631.779145723485
 30
0.0
 10
-7045.433545137473
 20
4781.046662605095
 30
0.0
 10
-7024.798215886968
 20
4423.684778067785
 30
0.0
 10
-7379.738130595259
 20
4561.40958890874
 30
0.0
 10
-7376.671691209477
 20
4192.504998330776
 30
0.0
 10
-7714.042716053048
 20
4341.772515212382
 30
0.0
 10
-7710.976276667267
 20
3972.867924634422
 30
0.0
 10
-8048.347301510835
 20
4122.135441516031
 30
0.0
 10
-8027.106056396699
 20
3754.280327998986
 30
0.0
 10
-8260.613478428855
 20
3871.697869922144
 30
0.0
  0
ENDBLK
  5
5B
330
59
100
AcDbEntity
  8
0
100
AcDbBlockEnd
  0
BLOCK
  5
5D
330
5C
100
AcDbEntity
  8
0
100
AcDbBlockBegin
  2
グループ-6
 70
     0
 10
0.0
 20
0.0
 30
0.0
  3
グループ-6
  1

  0
WIPEOUT
  5
172
330
5C
100
AcDbEntity
  8
0-2
  6
Continuous
 62
   253
370
     5
 92
      152
310
98000000040000000C0000000E000000120000000C00000016000000000000C20C00000014000000010000006C00000007000000040000001E1BA0ECEE93ACC0E0113F03062A9A4000000000000000001F1BA0ECEE57ACC0E0113F03062A9A4000000000000000001F1BA0ECEE57ACC0C2237E060C548B4000000000000000
310
001E1BA0ECEE93ACC0C2237E060C548B400000000000000000
100
AcDbWipeout
 90
        0
 10
-3657.966649058638
 20
874.5058717589054
 30
0.0
 11
800.0
 21
0.0
 31
0.0
 12
0.0
 22
800.0
 32
0.0
 13
1.0
 23
1.0
340
0
 70
     4
280
     1
281
    50
282
    50
283
     0
360
0
 71
     2
 91
        5
 14
-0.5
 24
-0.5
 14
-0.4625000000000004
 24
-0.5
 14
-0.4625000000000004
 24
0.4999999999999998
 14
-0.5
 24
0.4999999999999998
 14
-0.5
 24
-0.5
  0
POLYLINE
  5
173
330
5C
100
AcDbEntity
  8
0-2
  6
Continuous
 62
   253
370
     5
100
AcDb2dPolyline
 66
     1
 10
0.0
 20
0.0
 30
0.0
 70
     5
 75
     5
  0
VERTEX
  5
174
330
173
100
AcDbEntity
  8
0-2
  6
Continuous
 62
   253
370
     5
100
AcDbVertex
100
AcDb2dVertex
 10
-3657.966649058638
 20
1674.505871758905
 30
0.0
  0
VERTEX
  5
175
330
173
100
AcDbEntity
  8
0-2
  6
Continuous
 62
   253
370
     5
100
AcDbVertex
100
AcDb2dVertex
 10
-3627.966649058638
 20
1674.505871758905
 30
0.0
  0
VERTEX
  5
176
330
173
100
AcDbEntity
  8
0-2
  6
Continuous
 62
   253
370
     5
100
AcDbVertex
100
AcDb2dVertex
 10
-3627.966649058638
 20
874.5058717589054
 30
0.0
  0
VERTEX
  5
177
330
173
100
AcDbEntity
  8
0-2
  6
Continuous
 62
   253
370
     5
100
AcDbVertex
100
AcDb2dVertex
 10
-3657.966649058638
 20
874.5058717589054
 30
0.0
  0
SEQEND
  5
178
330
173
100
AcDbEntity
  8
0-2
  6
Continuous
 62
   253
370
     5
  0
WIPEOUT
  5
179
330
5C
100
AcDbEntity
  8
0-2
  6
Continuous
 62
   253
370
     5
 92
      152
310
98000000040000000C0000000E000000120000000C00000016000000000000C20C00000014000000010000006C00000007000000040000001E1BA0ECEEC7A5C0E0113F03062A9A4000000000000000001F1BA0ECEE8BA5C0E0113F03062A9A4000000000000000001F1BA0ECEE8BA5C0C2237E060C548B4000000000000000
310
001E1BA0ECEEC7A5C0C2237E060C548B400000000000000000
100
AcDbWipeout
 90
        0
 10
-2787.966649058638
 20
874.5058717589054
 30
0.0
 11
800.0
 21
0.0
 31
0.0
 12
0.0
 22
800.0
 32
0.0
 13
1.0
 23
1.0
340
0
 70
     4
280
     1
281
    50
282
    50
283
     0
360
0
 71
     2
 91
        5
 14
-0.5
 24
-0.5
 14
-0.4625000000000004
 24
-0.5
 14
-0.4625000000000004
 24
0.4999999999999998
 14
-0.5
 24
0.4999999999999998
 14
-0.5
 24
-0.5
  0
POLYLINE
  5
17A
330
5C
100
AcDbEntity
  8
0-2
  6
Continuous
 62
   253
370
     5
100
AcDb2dPolyline
 66
     1
 10
0.0
 20
0.0
 30
0.0
 70
     5
 75
     5
  0
VERTEX
  5
17B
330
17A
100
AcDbEntity
  8
0-2
  6
Continuous
 62
   253
370
     5
100
AcDbVertex
100
AcDb2dVertex
 10
-2787.966649058638
 20
1674.505871758905
 30
0.0
  0
VERTEX
  5
17C
330
17A
100
AcDbEntity
  8
0-2
  6
Continuous
 62
   253
370
     5
100
AcDbVertex
100
AcDb2dVertex
 10
-2757.966649058638
 20
1674.505871758905
 30
0.0
  0
VERTEX
  5
17D
330
17A
100
AcDbEntity
  8
0-2
  6
Continuous
 62
   253
370
     5
100
AcDbVertex
100
AcDb2dVertex
 10
-2757.966649058638
 20
874.5058717589054
 30
0.0
  0
VERTEX
  5
17E
330
17A
100
AcDbEntity
  8
0-2
  6
Continuous
 62
   253
370
     5
100
AcDbVertex
100
AcDb2dVertex
 10
-2787.966649058638
 20
874.5058717589054
 30
0.0
  0
SEQEND
  5
17F
330
17A
100
AcDbEntity
  8
0-2
  6
Continuous
 62
   253
370
     5
  0
WIPEOUT
  5
180
330
5C
100
AcDbEntity
  8
0-2
  6
Continuous
 62
   253
370
     5
 92
      152
310
98000000040000000C0000000E000000120000000C00000016000000000000C20C00000014000000010000006C0000000700000004000000201BA0ECEE57ACC0E0113F03062A9A4000000000000000001F1BA0ECEEC7A5C0E0113F03062A9A4000000000000000001F1BA0ECEEC7A5C0E0113F03066A964000000000000000
310
00201BA0ECEE57ACC0E0113F03066A96400000000000000000
100
AcDbWipeout
 90
        0
 10
-3627.966649058638
 20
1434.505871758905
 30
0.0
 11
840.0
 21
0.0
 31
0.0
 12
0.0
 22
840.0
 32
0.0
 13
1.0
 23
1.0
340
0
 70
     4
280
     1
281
    50
282
    50
283
     0
360
0
 71
     2
 91
        5
 14
-0.5000000000000009
 24
0.2142857142857142
 14
0.4999999999999996
 24
0.2142857142857142
 14
0.4999999999999996
 24
0.5
 14
-0.5000000000000009
 24
0.5
 14
-0.5000000000000009
 24
0.2142857142857142
  0
POLYLINE
  5
181
330
5C
100
AcDbEntity
  8
0-2
  6
Continuous
 62
   253
370
     5
100
AcDb2dPolyline
 66
     1
 10
0.0
 20
0.0
 30
0.0
 70
     5
 75
     5
  0
VERTEX
  5
182
330
181
100
AcDbEntity
  8
0-2
  6
Continuous
 62
   253
370
     5
100
AcDbVertex
100
AcDb2dVertex
 10
-3627.966649058638
 20
1674.505871758905
 30
0.0
  0
VERTEX
  5
183
330
181
100
AcDbEntity
  8
0-2
  6
Continuous
 62
   253
370
     5
100
AcDbVertex
100
AcDb2dVertex
 10
-2787.966649058638
 20
1674.505871758905
 30
0.0
  0
VERTEX
  5
184
330
181
100
AcDbEntity
  8
0-2
  6
Continuous
 62
   253
370
     5
100
AcDbVertex
100
AcDb2dVertex
 10
-2787.966649058638
 20
1434.505871758905
 30
0.0
  0
VERTEX
  5
185
330
181
100
AcDbEntity
  8
0-2
  6
Continuous
 62
   253
370
     5
100
AcDbVertex
100
AcDb2dVertex
 10
-3627.966649058638
 20
1434.505871758905
 30
0.0
  0
SEQEND
  5
186
330
181
100
AcDbEntity
  8
0-2
  6
Continuous
 62
   253
370
     5
  0
WIPEOUT
  5
187
330
5C
100
AcDbEntity
  8
0-2
  6
Continuous
 62
   253
370
     5
 92
      152
310
98000000040000000C0000000E000000120000000C00000016000000000000C20C00000014000000010000006C0000000700000004000000201BA0ECEE57ACC0E0113F03066A964000000000000000001F1BA0ECEEC7A5C0E0113F03066A964000000000000000001F1BA0ECEEC7A5C0E0113F0306AA924000000000000000
310
00201BA0ECEE57ACC0E0113F0306AA92400000000000000000
100
AcDbWipeout
 90
        0
 10
-3627.966649058638
 20
1194.505871758905
 30
0.0
 11
840.0
 21
0.0
 31
0.0
 12
0.0
 22
840.0
 32
0.0
 13
1.0
 23
1.0
340
0
 70
     4
280
     1
281
    50
282
    50
283
     0
360
0
 71
     2
 91
        5
 14
-0.5000000000000009
 24
0.2142857142857144
 14
0.4999999999999996
 24
0.2142857142857144
 14
0.4999999999999996
 24
0.5
 14
-0.5000000000000009
 24
0.5
 14
-0.5000000000000009
 24
0.2142857142857144
  0
POLYLINE
  5
188
330
5C
100
AcDbEntity
  8
0-2
  6
Continuous
 62
   253
370
     5
100
AcDb2dPolyline
 66
     1
 10
0.0
 20
0.0
 30
0.0
 70
     5
 75
     5
  0
VERTEX
  5
189
330
188
100
AcDbEntity
  8
0-2
  6
Continuous
 62
   253
370
     5
100
AcDbVertex
100
AcDb2dVertex
 10
-3627.966649058638
 20
1434.505871758905
 30
0.0
  0
VERTEX
  5
18A
330
188
100
AcDbEntity
  8
0-2
  6
Continuous
 62
   253
370
     5
100
AcDbVertex
100
AcDb2dVertex
 10
-2787.966649058638
 20
1434.505871758905
 30
0.0
  0
VERTEX
  5
18B
330
188
100
AcDbEntity
  8
0-2
  6
Continuous
 62
   253
370
     5
100
AcDbVertex
100
AcDb2dVertex
 10
-2787.966649058638
 20
1194.505871758905
 30
0.0
  0
VERTEX
  5
18C
330
188
100
AcDbEntity
  8
0-2
  6
Continuous
 62
   253
370
     5
100
AcDbVertex
100
AcDb2dVertex
 10
-3627.966649058638
 20
1194.505871758905
 30
0.0
  0
SEQEND
  5
18D
330
188
100
AcDbEntity
  8
0-2
  6
Continuous
 62
   253
370
     5
  0
WIPEOUT
  5
18E
330
5C
100
AcDbEntity
  8
0-2
  6
Continuous
 62
   253
370
     5
 92
      152
310
98000000040000000C0000000E000000120000000C00000016000000000000C20C00000014000000010000006C0000000700000004000000201BA0ECEE57ACC0E0113F0306AA924000000000000000001F1BA0ECEEC7A5C0E0113F0306AA924000000000000000001F1BA0ECEEC7A5C0C0237E060CD48D4000000000000000
310
00201BA0ECEE57ACC0C0237E060CD48D400000000000000000
100
AcDbWipeout
 90
        0
 10
-3627.966649058638
 20
954.5058717589054
 30
0.0
 11
840.0
 21
0.0
 31
0.0
 12
0.0
 22
840.0
 32
0.0
 13
1.0
 23
1.0
340
0
 70
     4
280
     1
281
    50
282
    50
283
     0
360
0
 71
     2
 91
        5
 14
-0.5000000000000009
 24
0.2142857142857142
 14
0.4999999999999996
 24
0.2142857142857142
 14
0.4999999999999996
 24
0.5
 14
-0.5000000000000009
 24
0.5
 14
-0.5000000000000009
 24
0.2142857142857142
  0
POLYLINE
  5
18F
330
5C
100
AcDbEntity
  8
0-2
  6
Continuous
 62
   253
370
     5
100
AcDb2dPolyline
 66
     1
 10
0.0
 20
0.0
 30
0.0
 70
     5
 75
     5
  0
VERTEX
  5
190
330
18F
100
AcDbEntity
  8
0-2
  6
Continuous
 62
   253
370
     5
100
AcDbVertex
100
AcDb2dVertex
 10
-3627.966649058638
 20
1194.505871758905
 30
0.0
  0
VERTEX
  5
191
330
18F
100
AcDbEntity
  8
0-2
  6
Continuous
 62
   253
370
     5
100
AcDbVertex
100
AcDb2dVertex
 10
-2787.966649058638
 20
1194.505871758905
 30
0.0
  0
VERTEX
  5
192
330
18F
100
AcDbEntity
  8
0-2
  6
Continuous
 62
   253
370
     5
100
AcDbVertex
100
AcDb2dVertex
 10
-2787.966649058638
 20
954.5058717589054
 30
0.0
  0
VERTEX
  5
193
330
18F
100
AcDbEntity
  8
0-2
  6
Continuous
 62
   253
370
     5
100
AcDbVertex
100
AcDb2dVertex
 10
-3627.966649058638
 20
954.5058717589054
 30
0.0
  0
SEQEND
  5
194
330
18F
100
AcDbEntity
  8
0-2
  6
Continuous
 62
   253
370
     5
  0
ENDBLK
  5
5E
330
5C
100
AcDbEntity
  8
0
100
AcDbBlockEnd
  0
BLOCK
  5
60
330
5F
100
AcDbEntity
  8
0
100
AcDbBlockBegin
  2
グループ-7
 70
     0
 10
0.0
 20
0.0
 30
0.0
  3
グループ-7
  1

  0
WIPEOUT
  5
195
330
5F
100
AcDbEntity
  8
0-2
  6
Continuous
 62
   253
370
     5
 92
      152
310
98000000040000000C0000000E000000120000000C00000016000000000000C20C00000014000000010000006C0000000700000004000000325DF953C2D9A140E0113F03062A9A400000000000000000325DF953C215A240E0113F03062A9A400000000000000000325DF953C215A240C2237E060C548B4000000000000000
310
00325DF953C2D9A140C2237E060C548B400000000000000000
100
AcDbWipeout
 90
        0
 10
2284.879546921374
 20
874.5058717589054
 30
0.0
 11
800.0
 21
0.0
 31
0.0
 12
0.0
 22
800.0
 32
0.0
 13
1.0
 23
1.0
340
0
 70
     4
280
     1
281
    50
282
    50
283
     0
360
0
 71
     2
 91
        5
 14
-0.5
 24
-0.5
 14
-0.4624999999999999
 24
-0.5
 14
-0.4624999999999999
 24
0.4999999999999998
 14
-0.5
 24
0.4999999999999998
 14
-0.5
 24
-0.5
  0
POLYLINE
  5
196
330
5F
100
AcDbEntity
  8
0-2
  6
Continuous
 62
   253
370
     5
100
AcDb2dPolyline
 66
     1
 10
0.0
 20
0.0
 30
0.0
 70
     5
 75
     5
  0
VERTEX
  5
197
330
196
100
AcDbEntity
  8
0-2
  6
Continuous
 62
   253
370
     5
100
AcDbVertex
100
AcDb2dVertex
 10
2284.879546921374
 20
1674.505871758905
 30
0.0
  0
VERTEX
  5
198
330
196
100
AcDbEntity
  8
0-2
  6
Continuous
 62
   253
370
     5
100
AcDbVertex
100
AcDb2dVertex
 10
2314.879546921374
 20
1674.505871758905
 30
0.0
  0
VERTEX
  5
199
330
196
100
AcDbEntity
  8
0-2
  6
Continuous
 62
   253
370
     5
100
AcDbVertex
100
AcDb2dVertex
 10
2314.879546921374
 20
874.5058717589054
 30
0.0
  0
VERTEX
  5
19A
330
196
100
AcDbEntity
  8
0-2
  6
Continuous
 62
   253
370
     5
100
AcDbVertex
100
AcDb2dVertex
 10
2284.879546921374
 20
874.5058717589054
 30
0.0
  0
SEQEND
  5
19B
330
196
100
AcDbEntity
  8
0-2
  6
Continuous
 62
   253
370
     5
  0
WIPEOUT
  5
19C
330
5F
100
AcDbEntity
  8
0-2
  6
Continuous
 62
   253
370
     5
 92
      152
310
98000000040000000C0000000E000000120000000C00000016000000000000C20C00000014000000010000006C000000070000000400000064BAF2A7841B9640E0113F03062A9A40000000000000000063BAF2A784939640E0113F03062A9A40000000000000000063BAF2A784939640C2237E060C548B4000000000000000
310
0064BAF2A7841B9640C2237E060C548B400000000000000000
100
AcDbWipeout
 90
        0
 10
1414.879546921374
 20
874.5058717589054
 30
0.0
 11
800.0
 21
0.0
 31
0.0
 12
0.0
 22
800.0
 32
0.0
 13
1.0
 23
1.0
340
0
 70
     4
280
     1
281
    50
282
    50
283
     0
360
0
 71
     2
 91
        5
 14
-0.4999999999999998
 24
-0.5
 14
-0.4624999999999999
 24
-0.5
 14
-0.4624999999999999
 24
0.4999999999999998
 14
-0.4999999999999998
 24
0.4999999999999998
 14
-0.4999999999999998
 24
-0.5
  0
POLYLINE
  5
19D
330
5F
100
AcDbEntity
  8
0-2
  6
Continuous
 62
   253
370
     5
100
AcDb2dPolyline
 66
     1
 10
0.0
 20
0.0
 30
0.0
 70
     5
 75
     5
  0
VERTEX
  5
19E
330
19D
100
AcDbEntity
  8
0-2
  6
Continuous
 62
   253
370
     5
100
AcDbVertex
100
AcDb2dVertex
 10
1414.879546921374
 20
1674.505871758905
 30
0.0
  0
VERTEX
  5
19F
330
19D
100
AcDbEntity
  8
0-2
  6
Continuous
 62
   253
370
     5
100
AcDbVertex
100
AcDb2dVertex
 10
1444.879546921374
 20
1674.505871758905
 30
0.0
  0
VERTEX
  5
1A0
330
19D
100
AcDbEntity
  8
0-2
  6
Continuous
 62
   253
370
     5
100
AcDbVertex
100
AcDb2dVertex
 10
1444.879546921374
 20
874.5058717589054
 30
0.0
  0
VERTEX
  5
1A1
330
19D
100
AcDbEntity
  8
0-2
  6
Continuous
 62
   253
370
     5
100
AcDbVertex
100
AcDb2dVertex
 10
1414.879546921374
 20
874.5058717589054
 30
0.0
  0
SEQEND
  5
1A2
330
19D
100
AcDbEntity
  8
0-2
  6
Continuous
 62
   253
370
     5
  0
WIPEOUT
  5
1A3
330
5F
100
AcDbEntity
  8
0-2
  6
Continuous
 62
   253
370
     5
 92
      152
310
98000000040000000C0000000E000000120000000C00000016000000000000C20C00000014000000010000006C000000070000000400000064BAF2A784939640E0113F03062A9A400000000000000000325DF953C2D9A140E0113F03062A9A400000000000000000325DF953C2D9A140E0113F03066A964000000000000000
310
0064BAF2A784939640E0113F03066A96400000000000000000
100
AcDbWipeout
 90
        0
 10
1444.879546921374
 20
1434.505871758905
 30
0.0
 11
840.0000000000002
 21
0.0
 31
0.0
 12
0.0
 22
840.0000000000002
 32
0.0
 13
1.0
 23
1.0
340
0
 70
     4
280
     1
281
    50
282
    50
283
     0
360
0
 71
     2
 91
        5
 14
-0.5
 24
0.2142857142857142
 14
0.5
 24
0.2142857142857142
 14
0.5
 24
0.4999999999999998
 14
-0.5
 24
0.4999999999999998
 14
-0.5
 24
0.2142857142857142
  0
POLYLINE
  5
1A4
330
5F
100
AcDbEntity
  8
0-2
  6
Continuous
 62
   253
370
     5
100
AcDb2dPolyline
 66
     1
 10
0.0
 20
0.0
 30
0.0
 70
     5
 75
     5
  0
VERTEX
  5
1A5
330
1A4
100
AcDbEntity
  8
0-2
  6
Continuous
 62
   253
370
     5
100
AcDbVertex
100
AcDb2dVertex
 10
1444.879546921374
 20
1674.505871758905
 30
0.0
  0
VERTEX
  5
1A6
330
1A4
100
AcDbEntity
  8
0-2
  6
Continuous
 62
   253
370
     5
100
AcDbVertex
100
AcDb2dVertex
 10
2284.879546921374
 20
1674.505871758905
 30
0.0
  0
VERTEX
  5
1A7
330
1A4
100
AcDbEntity
  8
0-2
  6
Continuous
 62
   253
370
     5
100
AcDbVertex
100
AcDb2dVertex
 10
2284.879546921374
 20
1434.505871758905
 30
0.0
  0
VERTEX
  5
1A8
330
1A4
100
AcDbEntity
  8
0-2
  6
Continuous
 62
   253
370
     5
100
AcDbVertex
100
AcDb2dVertex
 10
1444.879546921374
 20
1434.505871758905
 30
0.0
  0
SEQEND
  5
1A9
330
1A4
100
AcDbEntity
  8
0-2
  6
Continuous
 62
   253
370
     5
  0
WIPEOUT
  5
1AA
330
5F
100
AcDbEntity
  8
0-2
  6
Continuous
 62
   253
370
     5
 92
      152
310
98000000040000000C0000000E000000120000000C00000016000000000000C20C00000014000000010000006C000000070000000400000064BAF2A784939640E1113F03066A96400000000000000000325DF953C2D9A140E1113F03066A96400000000000000000325DF953C2D9A140E0113F0306AA924000000000000000
310
0064BAF2A784939640E0113F0306AA92400000000000000000
100
AcDbWipeout
 90
        0
 10
1444.879546921374
 20
1194.505871758905
 30
0.0
 11
840.0000000000002
 21
0.0
 31
0.0
 12
0.0
 22
840.0000000000002
 32
0.0
 13
1.0
 23
1.0
340
0
 70
     4
280
     1
281
    50
282
    50
283
     0
360
0
 71
     2
 91
        5
 14
-0.5
 24
0.214285714285714
 14
0.5
 24
0.214285714285714
 14
0.5
 24
0.4999999999999998
 14
-0.5
 24
0.4999999999999998
 14
-0.5
 24
0.214285714285714
  0
POLYLINE
  5
1AB
330
5F
100
AcDbEntity
  8
0-2
  6
Continuous
 62
   253
370
     5
100
AcDb2dPolyline
 66
     1
 10
0.0
 20
0.0
 30
0.0
 70
     5
 75
     5
  0
VERTEX
  5
1AC
330
1AB
100
AcDbEntity
  8
0-2
  6
Continuous
 62
   253
370
     5
100
AcDbVertex
100
AcDb2dVertex
 10
1444.879546921374
 20
1434.505871758905
 30
0.0
  0
VERTEX
  5
1AD
330
1AB
100
AcDbEntity
  8
0-2
  6
Continuous
 62
   253
370
     5
100
AcDbVertex
100
AcDb2dVertex
 10
2284.879546921374
 20
1434.505871758905
 30
0.0
  0
VERTEX
  5
1AE
330
1AB
100
AcDbEntity
  8
0-2
  6
Continuous
 62
   253
370
     5
100
AcDbVertex
100
AcDb2dVertex
 10
2284.879546921374
 20
1194.505871758905
 30
0.0
  0
VERTEX
  5
1AF
330
1AB
100
AcDbEntity
  8
0-2
  6
Continuous
 62
   253
370
     5
100
AcDbVertex
100
AcDb2dVertex
 10
1444.879546921374
 20
1194.505871758905
 30
0.0
  0
SEQEND
  5
1B0
330
1AB
100
AcDbEntity
  8
0-2
  6
Continuous
 62
   253
370
     5
  0
WIPEOUT
  5
1B1
330
5F
100
AcDbEntity
  8
0-2
  6
Continuous
 62
   253
370
     5
 92
      152
310
98000000040000000C0000000E000000120000000C00000016000000000000C20C00000014000000010000006C000000070000000400000064BAF2A784939640E1113F0306AA92400000000000000000325DF953C2D9A140E1113F0306AA92400000000000000000325DF953C2D9A140C2237E060CD48D4000000000000000
310
0064BAF2A784939640C2237E060CD48D400000000000000000
100
AcDbWipeout
 90
        0
 10
1444.879546921374
 20
954.5058717589054
 30
0.0
 11
840.0000000000002
 21
0.0
 31
0.0
 12
0.0
 22
840.0000000000002
 32
0.0
 13
1.0
 23
1.0
340
0
 70
     4
280
     1
281
    50
282
    50
283
     0
360
0
 71
     2
 91
        5
 14
-0.5
 24
0.214285714285714
 14
0.5
 24
0.214285714285714
 14
0.5
 24
0.4999999999999996
 14
-0.5
 24
0.4999999999999996
 14
-0.5
 24
0.214285714285714
  0
POLYLINE
  5
1B2
330
5F
100
AcDbEntity
  8
0-2
  6
Continuous
 62
   253
370
     5
100
AcDb2dPolyline
 66
     1
 10
0.0
 20
0.0
 30
0.0
 70
     5
 75
     5
  0
VERTEX
  5
1B3
330
1B2
100
AcDbEntity
  8
0-2
  6
Continuous
 62
   253
370
     5
100
AcDbVertex
100
AcDb2dVertex
 10
1444.879546921374
 20
1194.505871758905
 30
0.0
  0
VERTEX
  5
1B4
330
1B2
100
AcDbEntity
  8
0-2
  6
Continuous
 62
   253
370
     5
100
AcDbVertex
100
AcDb2dVertex
 10
2284.879546921374
 20
1194.505871758905
 30
0.0
  0
VERTEX
  5
1B5
330
1B2
100
AcDbEntity
  8
0-2
  6
Continuous
 62
   253
370
     5
100
AcDbVertex
100
AcDb2dVertex
 10
2284.879546921374
 20
954.5058717589054
 30
0.0
  0
VERTEX
  5
1B6
330
1B2
100
AcDbEntity
  8
0-2
  6
Continuous
 62
   253
370
     5
100
AcDbVertex
100
AcDb2dVertex
 10
1444.879546921374
 20
954.5058717589054
 30
0.0
  0
SEQEND
  5
1B7
330
1B2
100
AcDbEntity
  8
0-2
  6
Continuous
 62
   253
370
     5
  0
ENDBLK
  5
61
330
5F
100
AcDbEntity
  8
0
100
AcDbBlockEnd
  0
BLOCK
  5
63
330
62
100
AcDbEntity
  8
0
100
AcDbBlockBegin
  2
グループ-8
 70
     0
 10
0.0
 20
0.0
 30
0.0
  3
グループ-8
  1

  0
POLYLINE
  5
1B8
102
{ACAD_REACTORS
330
1BF
102
}
330
62
100
AcDbEntity
  8
0-2
  6
Continuous
 62
     7
370
     5
100
AcDb2dPolyline
 66
     1
 10
0.0
 20
0.0
 30
0.0
 70
     5
 75
     5
  0
VERTEX
  5
1B9
330
1B8
100
AcDbEntity
  8
0-2
  6
Continuous
 62
     7
370
     5
100
AcDbVertex
100
AcDb2dVertex
 10
-6474.751011212619
 20
2690.026814752717
 30
0.0
  0
VERTEX
  5
1BA
330
1B8
100
AcDbEntity
  8
0-2
  6
Continuous
 62
     7
370
     5
100
AcDbVertex
100
AcDb2dVertex
 10
-6474.751011212619
 20
2490.026814752717
 30
0.0
  0
VERTEX
  5
1BB
330
1B8
100
AcDbEntity
  8
0-2
  6
Continuous
 62
     7
370
     5
100
AcDbVertex
100
AcDb2dVertex
 10
-6724.313283089078
 20
1540.572985692779
 30
0.0
  0
VERTEX
  5
1BC
330
1B8
100
AcDbEntity
  8
0-2
  6
Continuous
 62
     7
370
     5
100
AcDbVertex
100
AcDb2dVertex
 10
-8924.31328308908
 20
1540.572985692779
 30
0.0
  0
VERTEX
  5
1BD
330
1B8
100
AcDbEntity
  8
0-2
  6
Continuous
 62
     7
370
     5
100
AcDbVertex
100
AcDb2dVertex
 10
-8924.31328308908
 20
2693.287062259849
 30
0.0
  0
SEQEND
  5
1BE
330
1B8
100
AcDbEntity
  8
0-2
  6
Continuous
 62
     7
370
     5
  0
HATCH
  5
1BF
330
62
100
AcDbEntity
  8
0-2
  6
Continuous
 62
   254
370
     0
100
AcDbHatch
 10
0.0
 20
0.0
 30
0.0
210
0.0
220
0.0
230
1.0
  2
SOLID
 70
     1
 71
     1
 91
        1
 92
        1
 93
        5
 72
     1
 10
-6474.751011212619
 20
2690.026814752717
 11
-6474.751011212619
 21
2490.026814752717
 72
     1
 10
-6474.751011212619
 20
2490.026814752717
 11
-6724.313283089078
 21
1540.572985692779
 72
     1
 10
-6724.313283089078
 20
1540.572985692779
 11
-8924.31328308908
 21
1540.572985692779
 72
     1
 10
-8924.31328308908
 20
1540.572985692779
 11
-8924.31328308908
 21
2693.287062259849
 72
     1
 10
-8924.31328308908
 20
2693.287062259849
 11
-6474.751011212619
 21
2690.026814752717
 97
        1
330
1B8
 75
     0
 76
     1
 98
        1
 10
0.0
 20
0.0
  0
POLYLINE
  5
1C0
102
{ACAD_REACTORS
330
1C7
102
}
330
62
100
AcDbEntity
  8
0-2
  6
Continuous
 62
     7
370
     5
100
AcDb2dPolyline
 66
     1
 10
0.0
 20
0.0
 30
0.0
 70
     5
 75
     5
  0
VERTEX
  5
1C1
330
1C0
100
AcDbEntity
  8
0-2
  6
Continuous
 62
     7
370
     5
100
AcDbVertex
100
AcDb2dVertex
 10
5134.201988332241
 20
2690.026814752717
 30
0.0
  0
VERTEX
  5
1C2
330
1C0
100
AcDbEntity
  8
0-2
  6
Continuous
 62
     7
370
     5
100
AcDbVertex
100
AcDb2dVertex
 10
5134.201988332241
 20
2490.026814752717
 30
0.0
  0
VERTEX
  5
1C3
330
1C0
100
AcDbEntity
  8
0-2
  6
Continuous
 62
     7
370
     5
100
AcDbVertex
100
AcDb2dVertex
 10
5383.764260208702
 20
1540.572985692779
 30
0.0
  0
VERTEX
  5
1C4
330
1C0
100
AcDbEntity
  8
0-2
  6
Continuous
 62
     7
370
     5
100
AcDbVertex
100
AcDb2dVertex
 10
7583.764260208701
 20
1540.572985692779
 30
0.0
  0
VERTEX
  5
1C5
330
1C0
100
AcDbEntity
  8
0-2
  6
Continuous
 62
     7
370
     5
100
AcDbVertex
100
AcDb2dVertex
 10
7583.764260208701
 20
2693.287062259849
 30
0.0
  0
SEQEND
  5
1C6
330
1C0
100
AcDbEntity
  8
0-2
  6
Continuous
 62
     7
370
     5
  0
HATCH
  5
1C7
330
62
100
AcDbEntity
  8
0-2
  6
Continuous
 62
   254
370
     0
100
AcDbHatch
 10
0.0
 20
0.0
 30
0.0
210
0.0
220
0.0
230
1.0
  2
SOLID
 70
     1
 71
     1
 91
        1
 92
        1
 93
        5
 72
     1
 10
5134.201988332241
 20
2690.026814752717
 11
5134.201988332241
 21
2490.026814752717
 72
     1
 10
5134.201988332241
 20
2490.026814752717
 11
5383.764260208702
 21
1540.572985692779
 72
     1
 10
5383.764260208702
 20
1540.572985692779
 11
7583.764260208701
 21
1540.572985692779
 72
     1
 10
7583.764260208701
 20
1540.572985692779
 11
7583.764260208701
 21
2693.287062259849
 72
     1
 10
7583.764260208701
 20
2693.287062259849
 11
5134.201988332241
 21
2690.026814752717
 97
        1
330
1C0
 75
     0
 76
     1
 98
        1
 10
0.0
 20
0.0
  0
ENDBLK
  5
64
330
62
100
AcDbEntity
  8
0
100
AcDbBlockEnd
  0
BLOCK
  5
66
330
65
100
AcDbEntity
  8
0
100
AcDbBlockBegin
  2
*D15
 70
     1
 10
0.0
 20
0.0
 30
0.0
  3
*D15
  1

  0
LINE
  5
1C8
330
65
100
AcDbEntity
  8
寸法
  6
Continuous
 62
     0
370
    -2
100
AcDbLine
 10
7702.078106983207
 20
7780.726717476264
 30
0.0
 11
6741.455184370331
 21
7780.726717476263
 31
0.0
  0
LINE
  5
1C9
330
65
100
AcDbEntity
  8
寸法
  6
Continuous
 62
     0
370
    -2
100
AcDbLine
 10
6041.455184370338
 20
1780.726717476264
 30
0.0
 11
7341.455184370471
 21
1780.726717476264
 31
0.0
  0
LINE
  5
1CA
330
65
100
AcDbEntity
  8
寸法
  6
Continuous
 62
     0
370
    -2
100
AcDbLine
 10
7041.455184370401
 20
7463.226717476263
 30
0.0
 11
7041.455184370401
 21
5162.934149230217
 31
0.0
  0
LINE
  5
1CB
330
65
100
AcDbEntity
  8
寸法
  6
Continuous
 62
     0
370
    -2
100
AcDbLine
 10
7041.455184370401
 20
2098.226717476264
 30
0.0
 11
7041.455184370401
 21
4024.119010341189
 31
0.0
  0
INSERT
  5
1CC
330
65
100
AcDbEntity
  8
寸法
 62
     0
370
    -2
100
AcDbBlockReference
  2
VW_SLASH
 10
7041.455184370401
 20
7780.726717476263
 30
0.0
 41
317.5
 42
317.5
 43
317.5
 50
90.0
  0
INSERT
  5
1CD
330
65
100
AcDbEntity
  8
寸法
 62
     0
370
    -2
100
AcDbBlockReference
  2
VW_SLASH
 10
7041.455184370401
 20
1780.726717476264
 30
0.0
 41
317.5
 42
317.5
 43
317.5
 50
270.0
  0
MTEXT
  5
1D1
330
65
100
AcDbEntity
  8
寸法
 62
     0
370
     5
100
AcDbMText
 10
7341.455184370471
 20
4593.526579785703
 30
0.0
 40
194.0277777777778
 41
0.0
 71
     5
 72
     1
  1
\A1;6000
  7
ＭＳ Ｐゴシック
 11
0.0
 21
1.0
 31
0.0
 73
     1
 44
1.0
  0
POINT
  5
1D5
330
65
100
AcDbEntity
  8
Defpoints
 62
     0
100
AcDbPoint
 10
7902.078106983169
 20
7780.726717476264
 30
0.0
  0
POINT
  5
1D6
330
65
100
AcDbEntity
  8
Defpoints
 62
     0
100
AcDbPoint
 10
4897.454042752519
 20
1780.726717476264
 30
0.0
  0
POINT
  5
1D7
330
65
100
AcDbEntity
  8
Defpoints
 62
     0
100
AcDbPoint
 10
7041.455184370401
 20
1780.726717476264
 30
0.0
  0
ENDBLK
  5
67
330
65
100
AcDbEntity
  8
0
100
AcDbBlockEnd
  0
BLOCK
  5
69
330
68
100
AcDbEntity
  8
0
100
AcDbBlockBegin
  2
グループ-9
 70
     0
 10
0.0
 20
0.0
 30
0.0
  3
グループ-9
  1

  0
WIPEOUT
  5
1DA
330
68
100
AcDbEntity
  8
0-2
  6
Continuous
 62
     7
370
     5
 92
      152
310
98000000040000000C0000000E000000120000000C00000016000000000000C20C00000014000000010000006C0000000700000004000000000000000000E0BF000000000000E03F0000000000000000000000000000E03F000000000000E03F0000000000000000000000000000E03FA46E00CD812BD23F00000000000000
310
00000000000000E0BFA46E00CD812BD23F0000000000000000
100
AcDbWipeout
 90
        0
 10
-0.5
 20
0.2839054586381541
 30
0.0
 11
1.0
 21
0.0
 31
0.0
 12
0.0
 22
1.0
 32
0.0
 13
1.0
 23
1.0
340
0
 70
     4
280
     1
281
    50
282
    50
283
     0
360
0
 71
     2
 91
        5
 14
-0.5
 24
0.2839054586381542
 14
0.5
 24
0.2839054586381542
 14
0.5
 24
0.5
 14
-0.5
 24
0.5
 14
-0.5
 24
0.2839054586381542
  0
MTEXT
  5
1DB
330
68
100
AcDbEntity
  8
0-2
 62
     7
100
AcDbMText
 10
4978.343289076067
 20
-7051.262978980337
 30
0.0
 40
339.5486111111111
 41
0.0
 71
     1
 72
     1
  1
{\fＭＳ Ｐゴシック|b0|i0|c128|p0;\l　　　とりぎん文化会館\P（鳥取県立県民文化会館）\P小ホール舞台平面図　1:100（A4）}
 73
     1
 44
0.8762322015334064
  0
WIPEOUT
  5
1DC
330
68
100
AcDbEntity
  8
0-2
  6
Continuous
 62
     7
370
     5
 92
      152
310
98000000040000000C0000000E000000120000000C00000016000000000000C20C00000014000000010000006C0000000700000004000000000000000000E0BF000000000000E03F0000000000000000000000000000E03F000000000000E03F0000000000000000000000000000E03FD80300A0FFFFDFBF00000000000000
310
00000000000000E0BFD80300A0FFFFDFBF0000000000000000
100
AcDbWipeout
 90
        0
 10
-0.5
 20
-0.4999999105930875
 30
0.0
 11
1.0
 21
0.0
 31
0.0
 12
0.0
 22
1.0
 32
0.0
 13
1.0
 23
1.0
340
0
 70
     4
280
     1
281
    50
282
    50
283
     0
360
0
 71
     2
 91
        5
 14
-0.5
 24
-0.4999999105930875
 14
0.5
 24
-0.4999999105930875
 14
0.5
 24
0.5
 14
-0.5
 24
0.5
 14
-0.5
 24
-0.4999999105930875
  0
MTEXT
  5
1DD
330
68
100
AcDbEntity
  8
0-2
 62
     7
100
AcDbMText
 10
4974.116385451005
 20
-7099.850843400398
 30
0.0
 40
217.1788518066181
 41
0.0
 71
     1
 72
     1
  1
{\fＭＳ ゴシック|b0|i0|c128|p0;\l　}
 73
     1
 44
0.7828267384257843
  0
POLYLINE
  5
1DE
330
68
100
AcDbEntity
  8
0-2
  6
Continuous
 62
     7
370
     5
100
AcDb2dPolyline
 66
     1
 10
0.0
 20
0.0
 30
0.0
 70
     5
 75
     5
  0
VERTEX
  5
1DF
330
1DE
100
AcDbEntity
  8
0-2
  6
Continuous
 62
     7
370
     5
100
AcDbVertex
100
AcDb2dVertex
 10
4562.737820326066
 20
-6656.900478980337
 30
0.0
  0
VERTEX
  5
1E0
330
1DE
100
AcDbEntity
  8
0-2
  6
Continuous
 62
     7
370
     5
100
AcDbVertex
100
AcDb2dVertex
 10
12035.46479924899
 20
-6656.900478980337
 30
0.0
  0
VERTEX
  5
1E1
330
1DE
100
AcDbEntity
  8
0-2
  6
Continuous
 62
     7
370
     5
100
AcDbVertex
100
AcDb2dVertex
 10
12035.46479924899
 20
-8756.900478980337
 30
0.0
  0
VERTEX
  5
1E2
330
1DE
100
AcDbEntity
  8
0-2
  6
Continuous
 62
     7
370
     5
100
AcDbVertex
100
AcDb2dVertex
 10
4562.737820326066
 20
-8756.900478980337
 30
0.0
  0
SEQEND
  5
1E3
330
1DE
100
AcDbEntity
  8
0-2
  6
Continuous
 62
     7
370
     5
  0
ENDBLK
  5
6A
330
68
100
AcDbEntity
  8
0
100
AcDbBlockEnd
  0
BLOCK
  5
6C
330
6B
100
AcDbEntity
  8
0
100
AcDbBlockBegin
  2
グループ-10
 70
     0
 10
0.0
 20
0.0
 30
0.0
  3
グループ-10
  1

  0
WIPEOUT
  5
1E4
330
6B
100
AcDbEntity
  8
0-2
  6
Continuous
 62
   251
370
     5
 92
     6248
310
68180000040000000C0000000E000000120000000C00000016000000000000C20C00000014000000010000003C1800000700000002010000CE2265B27DDDC040FF1784666E0986400000000000000000843F265912B7C1408F43C56DF0178C40000000000000000004DBD55B10B6C140E2FE0EF434318C4000000000000000
310
00DACF160D0BB5C1407FC3003E4F4A8C400000000000000000041EE96C02B4C14065919A4B3F638C40000000000000000083C54C7BF6B2C1409668DC1C057C8C40000000000000000056C64138E7B1C1400F49C6B1A0948C4000000000000000007E20C8A3D4B0C140D332580A12AD8C400000000000000000FAD3DFBDBEAF
310
C140DF25922659C58C400000000000000000CCE08886A5AEC1403622740676DD8C400000000000000000F246C3FD88ADC140D627FEA968F58C4000000000000000006C068F2369ACC140C0363011310D8D400000000000000000391FECF745ABC140F64E0A3CCF248D4000000000000000005E91DA7A1FAAC14072708C2A43
310
3C8D400000000000000000D65C5AACF5A8C140389BB6DC8C538D400000000000000000A3816B8CC8A7C14048CF8852AC6A8D400000000000000000C3FF0D1B98A6C140A30C038CA1818D4000000000000000003BD7415864A5C140475325896C988D400000000000000000050807442DA4C14033A3EF490DAF8D4000000000
310
0000000026925DDEF2A2C1406AFC61CE83C58D40000000000000000098754527B5A1C140EB5E7C16D0DB8D40000000000000000062B2BE1E74A0C140B5CA3E22F2F18D4000000000000000007E48C9C42F9FC140C83FA9F1E9078E400000000000000000F0376519E89DC14027BEBB84B71D8E400000000000000000B58092
310
1C9D9CC140CD4576DB5A338E400000000000000000D12251CE4E9BC140BFD6D8F5D3488E400000000000000000411EA12EFD99C140F870E3D3225E8E4000000000000000000573823DA898C1407C14967547738E4000000000000000001D21F5FA4F97C1404AC1F0DA41888E4000000000000000008B28F966F495C1406177
310
F303129D8E4000000000000000004E898E819594C140C2369EF0B7B18E4000000000000000006543B54A3393C1406CFFF0A033C68E400000000000000000D0566DC2CD91C14060D1EB1485DA8E40000000000000000090C3B6E86490C1409EAC8E4CACEE8E400000000000000000A48991BDF88EC1402591D947A9028F4000
310
000000000000000EA9FD40898DC140F67ECC067C168F400000000000000000CC21FB72168CC14010766789242A8F400000000000000000DEF38953A08AC1407676AACFA23D8F400000000000000000451FAAE22689C140248095D9F6508F40000000000000000001A45B20AA87C1401B9328A720648F400000000000000000
310
11829E0C2A86C1405CAF633820778F40000000000000000076B972A7A684C140E6D4468DF5898F400000000000000000304AD8F01F83C140BA03D2A5A09C8F4000000000000000003E34CFE89581C140D93B058221AF8F400000000000000000A077578F0880C140417DE02178C18F400000000000000000561471E4777EC1
310
40F1C76385A4D38F400000000000000000630A1CE8E37CC140EC1B8FACA6E58F400000000000000000C359589A4C7BC140317962977EF78F400000000000000000770226FBB179C140E0EFEE229604904000000000000000008204850A1478C140CBA700DC570D90400000000000000000E25F75C87276C1405B64E6760416
310
904000000000000000009514F734CE74C1409125A0F39B1E904000000000000000009D220A502673C1406BEB2D521E2790400000000000000000F989AE197B71C140EAB58F928B2F90400000000000000000AA4AE491CC6FC1400F85C5B4E33790400000000000000000B064ABB81A6EC140D858CFB8264090400000000000
310
0000000AD8038E656CC1404531AD9E544890400000000000000000B8A4ED11AD6AC140580E5F666D5090400000000000000000BBCA6844F168C1400FF0E40F715890400000000000000000144A75253267C1406BD63E9B5F6090400000000000000000C02213B56F65C1406BC16C08396890400000000000000000C15442F3
310
A963C14011B16E57FD6F9040000000000000000016E002E0E061C1405BA54488AC7790400000000000000000C0C4547B1460C1404B9EEE9A467F90400000000000000000C00238C5445EC140DE9B6C8FCB8690400000000000000000149AACBD715CC140179EBE653B8E904000000000000000008A34EA709C5AC140992A6C
310
E2919590400000000000000000F27B28EBC558C14009C7FCC9CA9C904000000000000000004B70672CEE56C1406773701CE6A3904000000000000000009411A7341555C140B22FC7D9E3AA90400000000000000000D05FE7033B53C140ECFB0002C4B190400000000000000000FD5A289A5F51C14013D81D9586B890400000
310
0000000000001B036AF7824FC14028C41D932BBF904000000000000000002958AC1BA54DC1402BC000FCB2C590400000000000000000275AEF06C64BC1401CCCC6CF1CCC904000000000000000001A0933B9E549C140FCE76F0E69D290400000000000000000FC6477320448C140C713FCB797D890400000000000000000CF
310
6DBC722146C140814F6BCCA8DE904000000000000000009423027A3D44C140299BBD4B9CE4904000000000000000004A8648485842C140C0F6F23572EA90400000000000000000F0958FDD7140C14044620B8B2AF0904000000000000000008852D7398A3EC140B5DD064BC5F59040000000000000000011BC1F5DA13CC140
310
1469E57542FB904000000000000000008BD26847B73AC1406104A70BA20091400000000000000000F695B2F8CB38C1409CAF4B0CE405914000000000000000005206FD70DF36C140C56AD377080B91400000000000000000A02348B0F134C140DC353E4E0F1091400000000000000000DFED93B60233C140E1108C8FF81491
310
4000000000000000000E65E0831231C140D3FBBC3BC419914000000000000000002F892D18212FC140B4F6D052721E91400000000000000000425A7B732E2DC1408101C8D402239140000000000000000045D8C9953A2BC1403D1CA2C17527914000000000000000003A03197F4529C140E6465F19CB2B9140000000000000
310
000020DB682F4F27C1407D81FFDB023091400000000000000000F55FB9A65725C14002CC82091D3491400000000000000000BD910AE55E23C1407626E9A119389140000000000000000076705CEA6421C140D69032A5F83B9140000000000000000022FCAEB6691FC140260B5F13BA3F91400000000000000000BD34024A6D
310
1DC14061956EEC5D43914000000000000000004A1A56A46F1BC1408C2F6130E44691400000000000000000C8ACAAC57019C140A4D936DF4C4A9140000000000000000037ECFFAD7017C140A993EFF8974D9140000000000000000096D8555D6F15C1409D5D8B7DC55091400000000000000000E871ACD36C13C1407F370A6D
310
D553914000000000000000002AB803116911C1404E216CC7C756914000000000000000005EAB5B15640FC1400C1BB18C9C5991400000000000000000824BB4E05D0DC140B924D9BC535C9140000000000000000098980D73560BC140513EE457ED5E91400000000000000000A09267CC4D09C140D867D25D69619140000000
310
00000000009839C2EC4307C1404CA1A3CEC76391400000000000000000818D1DD43805C140AEEA57AA0866914000000000000000005B8E79822C03C140FF43EFF02B6891400000000000000000263CD6F71E01C1403DAD69A2316A91400000000000000000E496333410FFC0406926C7BE196C91400000000000000000919E
310
913700FDC04083AF0746E46D914000000000000000003053F001EFFAC0408B482B38916F91400000000000000000C0B44F93DCF8C04080F1319520719140000000000000000041C3AFEBC8F6C04063AA1B5D927291400000000000000000B47E100BB4F4C0403473E88FE6739140000000000000000018E771F19DF2C040F4
310
4B982D1D75914000000000000000006DFCD39E86F0C0409F342B36367691400000000000000000B4BE36136EEEC040392DA1A9317791400000000000000000EA2D9A4E54ECC040C135FA870F7891400000000000000000134AFE5039EAC040384E36D1CF78914000000000000000002D13631A1DE8C0409C76558572799140
310
00000000000000003889C8AAFFE5C040EDAE57A4F7799140000000000000000034AC2E02E1E3C0402DF73C2E5F7A91400000000000000000207C9520C1E1C0405B4F0523A97A91400000000000000000FEF8FC05A0DFC04076B7B082D57A91400000000000000000CD2265B27DDDC0407F2F3F4DE47A914000000000000000
310
009C4CCD5E5BDBC04076B7B082D57A9140000000000000000079C934443AD9C0405B4F0523A97A9140000000000000000066999B621AD7C0402DF73C2E5F7A9140000000000000000061BC01BAFBD4C040EDAE57A4F779914000000000000000006D32674ADED2C0409C76558572799140000000000000000087FBCB13C2D0
310
C040384E36D1CF7891400000000000000000AF173016A7CEC040C135FA870F7891400000000000000000E68693518DCCC040392DA1A93177914000000000000000002C49F6C574CAC0409F342B36367691400000000000000000815E58735DC8C040F44B982D1D7591400000000000000000E5C6B95947C6C0403473E88FE6
310
739140000000000000000058821A7932C4C04063AA1B5D927291400000000000000000DA907AD11EC2C04080F131952071914000000000000000006AF2D9620CC0C0408B482B38916F9140000000000000000009A7382DFBBDC04083AF0746E46D91400000000000000000B6AE9630EBBBC0406926C7BE196C914000000000
310
000000007309F46CDCB9C0403DAD69A2316A914000000000000000003FB750E2CEB7C040FF43EFF02B689140000000000000000019B8AC90C2B5C040AEEA57AA086691400000000000000000020C0878B7B3C0404CA1A3CEC76391400000000000000000FAB26298ADB1C040D867D25D69619140000000000000000001ADBC
310
F1A4AFC040513EE457ED5E9140000000000000000018FA15849DADC040B924D9BC535C914000000000000000003C9A6E4F97ABC0400C1BB18C9C5991400000000000000000708DC65392A9C0404E216CC7C75691400000000000000000B2D31D918EA7C0407F370A6DD55391400000000000000000046D74078CA5C0409D5D
310
8B7DC550914000000000000000006259CAB68AA3C040A993EFF8974D91400000000000000000D2981F9F8AA1C040A4D936DF4C4A91400000000000000000502B74C08B9FC0408C2F6130E44691400000000000000000DC10C81A8E9DC04061956EEC5D439140000000000000000078491BAE919BC040260B5F13BA3F914000
310
0000000000000023D56D7A9699C040D69032A5F83B91400000000000000000DCB3BF7F9C97C0407626E9A1193891400000000000000000A4E510BEA395C04002CC82091D3491400000000000000000796A6135AC93C0407D81FFDB0230914000000000000000006042B1E5B591C040E6465F19CB2B91400000000000000000
310
546D00CFC08FC0403D1CA2C175279140000000000000000058EB4EF1CC8DC0408101C8D40223914000000000000000006ABC9C4CDA8BC040B4F6D052721E914000000000000000008CE0E9E0E889C040D3FBBC3BC41991400000000000000000BB5736AEF887C040E1108C8FF81491400000000000000000F92182B40986C0
310
40DC353E4E0F1091400000000000000000473FCDF31B84C040C56AD377080B91400000000000000000A4AF176C2F82C0409CAF4B0CE405914000000000000000000E73611D4480C0406104A70BA200914000000000000000008989AA075A7EC0401469E57542FB9040000000000000000012F3F22A717CC040B5DD064BC5F5
310
90400000000000000000AAAF3A87897AC04044620B8B2AF09040000000000000000050BF811CA378C040C0F6F23572EA904000000000000000000622C8EABD76C040299BBD4B9CE490400000000000000000CAD70DF2D974C040814F6BCCA8DE904000000000000000009EE05232F772C040C713FCB797D890400000000000
310
000000803C97AB1571C040FCE76F0E69D29040000000000000000072EBDA5D356FC0401CCCC6CF1CCC9040000000000000000071ED1D49566DC0402BC000FCB2C5904000000000000000007E42606D786BC04028C41D932BBF904000000000000000009DEAA1CA9B69C04013D81D9586B890400000000000000000C9E5E260
310
C067C040ECFB0002C4B19040000000000000000005342330E665C040B22FC7D9E3AA904000000000000000004ED562380D64C0406773701CE6A390400000000000000000A8C9A1793562C04009C7FCC9CA9C904000000000000000001011E0F35E60C040992A6CE291959040000000000000000087AB1DA7895EC040179EBE
310
653B8E90400000000000000000DB42929FB65CC040DE9B6C8FCB8690400000000000000000DA8075E9E65AC0404B9EEE9A467F904000000000000000008665C7841A59C0405BA54488AC7790400000000000000000DBF087715157C04011B16E57FD6F90400000000000000000DC22B7AF8B55C0406BC16C08396890400000
310
00000000000088FB543FC953C0406BD63E9B5F6090400000000000000000E17A61200A52C0400FF0E40F715890400000000000000000E4A0DC524E50C040580E5F666D5090400000000000000000926DC6D6954EC0404531AD9E544890400000000000000000ECE01EACE04CC040D858CFB8264090400000000000000000F2
310
FAE5D22E4BC0400F85C5B4E33790400000000000000000A3BB1B4B8049C040EAB58F928B2F90400000000000000000FF22C014D547C0406BEB2D521E27904000000000000000000731D32F2D46C0409125A0F39B1E90400000000000000000BAE5549C8844C0405B64E6760416904000000000000000001841455AE742C040
310
CBA700DC570D904000000000000000002443A4694941C040E0EFEE22960490400000000000000000D9EB71CAAE3FC040317962977EF78F400000000000000000393BAE7C173EC040EC1B8FACA6E58F40000000000000000045315980833CC040F1C76385A4D38F400000000000000000FCCD72D5F23AC040417DE02178C18F
310
4000000000000000005E11FB7B6539C040D93B058221AF8F4000000000000000006CFBF173DB37C040BA03D2A5A09C8F400000000000000000268C57BD5436C040E6D4468DF5898F4000000000000000008BC32B58D134C0405CAF633820778F4000000000000000009BA16E445133C0401B9328A720648F40000000000000
310
000057262082D431C040248095D9F6508F400000000000000000BE5140115B30C0407676AACFA23D8F400000000000000000D023CFF1E42EC04010766789242A8F4000000000000000008E9CCC23722DC040F67ECC067C168F400000000000000000F8BB38A7022CC0402591D947A9028F4000000000000000000C82137C96
310
2AC0409EAC8E4CACEE8E400000000000000000CCEE5CA22D29C04060D1EB1485DA8E4000000000000000003702151AC827C0406CFFF0A033C68E4000000000000000004EBC3BE36526C040C2369EF0B7B18E4000000000000000000F1DD1FD0625C0406177F303129D8E4000000000000000007D24D569AB23C0404AC1F0DA
310
41888E40000000000000000095D247275322C0407C14967547738E4000000000000000005B272936FE20C040F870E3D3225E8E400000000000000000C9227996AC1FC040BFD6D8F5D3488E400000000000000000E4C437485E1EC040CD4576DB5A338E400000000000000000AB0D654B131DC04027BEBB84B71D8E40000000
310
00000000001CFD00A0CB1BC040C83FA9F1E9078E4000000000000000003A930B46871AC040B5CA3E22F2F18D40000000000000000003D0843D4619C040EB5E7C16D0DB8D40000000000000000076B36C860818C0406AFC61CE83C58D400000000000000000963DC320CE16C04033A3EF490DAF8D400000000000000000606E
310
880C9715C040475325896C988D400000000000000000D645BC496314C040A30C038CA1818D400000000000000000F7C35ED83213C04048CF8852AC6A8D400000000000000000C4E86FB80512C040389BB6DC8C538D4000000000000000003CB4EFE9DB10C04072708C2A433C8D4000000000000000006026DE6CB50FC040F6
310
4E0A3CCF248D4000000000000000002D3F3B41920EC040C0363011310D8D400000000000000000A8FE0667720DC040D627FEA968F58C400000000000000000CE6441DE550CC0403622740676DD8C400000000000000000A071EAA63C0BC040DF25922659C58C4000000000000000001C2502C1260AC040D332580A12AD8C40
310
0000000000000000447F882C1409C0400F49C6B1A0948C40000000000000000017807DE90408C0409668DC1C057C8C4000000000000000009527E1F7F806C04065919A4B3F638C400000000000000000C075B357F005C0407FC3003E4F4A8C400000000000000000966AF408EB04C040E2FE0EF434318C4000000000000000
310
001606A40BE903C0408F43C56DF0178C400000000000000000
100
AcDbWipeout
 90
        0
 10
8199.820667746517
 20
705.1789064712357
 30
0.0
 11
870.322677877466
 21
0.0
 31
0.0
 12
0.0
 22
870.322677877466
 32
0.0
 13
1.0
 23
1.0
340
0
 70
     4
280
     1
281
    50
282
    50
283
     0
360
0
 71
     2
 91
      259
 14
0.0000000000000018
 24
0.5000000000000001
 14
0.5
 24
0.277308468082015
 14
0.4976841428104297
 24
0.2736794011401265
 14
0.4953385005593915
 24
0.2700740299025128
 14
0.4929630732468784
 24
0.2664923543691742
 14
0.4905578608728938
 24
0.2629343745401103
 14
0.4881228634374359
 24
0.2594000904153215
 14
0.4856580809405067
 24
0.2558895019948075
 14
0.4831635133821024
 24
0.2524026092785687
 14
0.4806391607622285
 24
0.2489394122666047
 14
0.4780850230808813
 24
0.2454999109589155
 14
0.4755011003380609
 24
0.2420841053555014
 14
0.4728873925337655
 24
0.238691995456362
 14
0.4702438996680023
 24
0.2353235812614978
 14
0.467570621740764
 24
0.2319788627709085
 14
0.4648675587520543
 24
0.2286578399845942
 14
0.4621347107018696
 24
0.2253605129025547
 14
0.459372077590217
 24
0.2220868815247901
 14
0.4565796594170894
 24
0.2188369458513006
 14
0.4537574561824922
 24
0.215610705882086
 14
0.4509054678864164
 24
0.2124081616171463
 14
0.4480236945288727
 24
0.2092293130564815
 14
0.4451121361098522
 24
0.2060741602000917
 14
0.4421707926293639
 24
0.2029427030479767
 14
0.4391996640873987
 24
0.1998349416001368
 14
0.4361987504839657
 24
0.1967508758565717
 14
0.4331680518190577
 24
0.1936905058172818
 14
0.4301075680926782
 24
0.1906538314822666
 14
0.4270172993048238
 24
0.1876408528515263
 14
0.4238972454554997
 24
0.184651569925061
 14
0.4207474065447023
 24
0.1816859827028707
 14
0.4175677825724335
 24
0.1787440911849554
 14
0.4143583735386898
 24
0.175825895371315
 14
0.4111191794434745
 24
0.1729313952619493
 14
0.4078502002867861
 24
0.1700605908568589
 14
0.404551436068628
 24
0.1672134821560431
 14
0.4012228867889949
 24
0.1643900691595026
 14
0.3978645524478885
 24
0.1615903518672366
 14
0.3944764330453108
 24
0.1588143302792457
 14
0.3910585285812616
 24
0.1560620043955299
 14
0.3876108390557391
 24
0.1533333742160889
 14
0.3841333644687435
 24
0.150628439740923
 14
0.3806261048202764
 24
0.147947200970032
 14
0.377089060110336
 24
0.1452896579034157
 14
0.3735222303389225
 24
0.1426558105410745
 14
0.3699256155060358
 24
0.1400456588830084
 14
0.3662992156116793
 24
0.137459202929217
 14
0.3626430306558479
 24
0.1348964426797006
 14
0.3589570606385433
 24
0.1323573781344591
 14
0.3552413055597707
 24
0.1298420092934927
 14
0.351495765419525
 24
0.1273503361568014
 14
0.3477204402178042
 24
0.1248823587243846
 14
0.343915329954612
 24
0.122438076996243
 14
0.3400804346299466
 24
0.1200174909723761
 14
0.3362157542438098
 24
0.1176206006527842
 14
0.3323212887961997
 24
0.1152474060374673
 14
0.3283970382871164
 24
0.1128979071264253
 14
0.3244430027165599
 24
0.1105721039196583
 14
0.3204591820845319
 24
0.1082699964171663
 14
0.3164455763910343
 24
0.105991584618949
 14
0.3124021856360599
 24
0.1037368685250071
 14
0.3083290098196141
 24
0.1015058481353397
 14
0.304226048941695
 24
0.0992985234499475
 14
0.3000933030023045
 24
0.0971148944688298
 14
0.2959307720014426
 24
0.0949549611919878
 14
0.2917384559391074
 24
0.0928187236194202
 14
0.2875257597713325
 24
0.0907109306936811
 14
0.2833020884541533
 24
0.0886363313573235
 14
0.2790674419875678
 24
0.0865949256103478
 14
0.2748218203715762
 24
0.084586713452754
 14
0.2705652236061802
 24
0.0826116948845417
 14
0.2662976516913798
 24
0.0806698699057111
 14
0.2620191046271731
 24
0.0787612385162622
 14
0.2577295824135586
 24
0.076885800716195
 14
0.2534290850505379
 24
0.0750435565055096
 14
0.2491176125381163
 24
0.0732345058842057
 14
0.2447951648762867
 24
0.0714586488522839
 14
0.2404617420650528
 24
0.0697159854097438
 14
0.2361173441044127
 24
0.0680065155565852
 14
0.2317619709943664
 24
0.066330239292808
 14
0.2273956227349139
 24
0.0646871566184128
 14
0.223018299326057
 24
0.0630772675333997
 14
0.2186300007677939
 24
0.0615005720377682
 14
0.2142307270601247
 24
0.0599570701315182
 14
0.2098204782030511
 24
0.05844676181465
 14
0.2053992541965712
 24
0.0569696470871635
 14
0.200967055040687
 24
0.0555257259490585
 14
0.1965238807353966
 24
0.0541149984003353
 14
0.1920697312806983
 24
0.0527374644409941
 14
0.1876046066765973
 24
0.0513931240710344
 14
0.1831285069230901
 24
0.0500819772904566
 14
0.1786414320201786
 24
0.0488040240992602
 14
0.1741433819678608
 24
0.0475592644974461
 14
0.1696343567661369
 24
0.0463476984850133
 14
0.165114356415005
 24
0.0451693260619623
 14
0.1605833809144706
 24
0.044024147228293
 14
0.1560414302645299
 24
0.0429121619840054
 14
0.1514885044651866
 24
0.0418333703290994
 14
0.1469246035164353
 24
0.0407877722635754
 14
0.1423497274182779
 24
0.0397753677874328
 14
0.1377638761707161
 24
0.0387961569006723
 14
0.133167049773748
 24
0.0378501396032935
 14
0.1285592482273721
 24
0.0369373158952961
 14
0.1239404715315953
 24
0.0360576857766806
 14
0.1193107196864105
 24
0.0352112492474468
 14
0.1146699926918213
 24
0.0343980063075946
 14
0.1100182905478242
 24
0.0336179569571238
 14
0.1053556132544227
 24
0.0328711011960352
 14
0.1006819608116185
 24
0.0321574390243282
 14
0.0959973332194064
 24
0.031476970442003
 14
0.0913017304777881
 24
0.0308296954490597
 14
0.0865951525867636
 24
0.0302156140454977
 14
0.081877599546333
 24
0.0296347262313177
 14
0.0771490713565015
 24
0.0290870320065193
 14
0.0724095680172603
 24
0.0285725313711025
 14
0.0676590895286147
 24
0.0280912243250675
 14
0.0628976358905629
 24
0.0276431108684143
 14
0.0581252071031066
 24
0.0272281910011429
 14
0.0533418031662443
 24
0.0268464647232531
 14
0.0485474240799775
 24
0.0264979320347449
 14
0.0437420698443045
 24
0.026182592935619
 14
0.0389257404592289
 24
0.0259004474258744
 14
0.0340984359247418
 24
0.0256514955055116
 14
0.0292601562408539
 24
0.0254357371745302
 14
0.0244109014075597
 24
0.0252531724329308
 14
0.0195506714248594
 24
0.0251038012807132
 14
0.0146794662927547
 24
0.024987623717877
 14
0.0097972860112403
 24
0.0249046397444226
 14
0.0049041305803232
 24
0.0248548493603502
 14
0.0
 24
0.0248382525656592
 14
-0.0049041305803232
 24
0.0248548493603502
 14
-0.0097972860112421
 24
0.0249046397444226
 14
-0.0146794662927547
 24
0.024987623717877
 14
-0.0195506714248612
 24
0.0251038012807132
 14
-0.0244109014075597
 24
0.0252531724329308
 14
-0.0292601562408539
 24
0.0254357371745302
 14
-0.0340984359247436
 24
0.0256514955055116
 14
-0.0389257404592289
 24
0.0259004474258744
 14
-0.0437420698443063
 24
0.026182592935619
 14
-0.0485474240799793
 24
0.0264979320347449
 14
-0.053341803166246
 24
0.0268464647232531
 14
-0.0581252071031084
 24
0.0272281910011429
 14
-0.0628976358905629
 24
0.0276431108684143
 14
-0.0676590895286147
 24
0.0280912243250675
 14
-0.0724095680172603
 24
0.0285725313711025
 14
-0.0771490713565015
 24
0.0290870320065193
 14
-0.0818775995463348
 24
0.0296347262313177
 14
-0.0865951525867636
 24
0.0302156140454977
 14
-0.0913017304777881
 24
0.0308296954490597
 14
-0.0959973332194064
 24
0.031476970442003
 14
-0.1006819608116185
 24
0.0321574390243282
 14
-0.1053556132544244
 24
0.0328711011960352
 14
-0.1100182905478242
 24
0.0336179569571238
 14
-0.1146699926918213
 24
0.0343980063075946
 14
-0.1193107196864105
 24
0.0352112492474468
 14
-0.1239404715315953
 24
0.0360576857766806
 14
-0.1285592482273739
 24
0.0369373158952961
 14
-0.1331670497737498
 24
0.0378501396032935
 14
-0.1377638761707161
 24
0.0387961569006723
 14
-0.1423497274182779
 24
0.0397753677874328
 14
-0.1469246035164371
 24
0.0407877722635754
 14
-0.1514885044651866
 24
0.0418333703290994
 14
-0.1560414302645317
 24
0.0429121619840054
 14
-0.1605833809144723
 24
0.044024147228293
 14
-0.1651143564150068
 24
0.0451693260619623
 14
-0.1696343567661387
 24
0.0463476984850133
 14
-0.1741433819678608
 24
0.0475592644974461
 14
-0.1786414320201803
 24
0.0488040240992602
 14
-0.1831285069230919
 24
0.0500819772904566
 14
-0.1876046066765991
 24
0.0513931240710344
 14
-0.1920697312806983
 24
0.0527374644409941
 14
-0.1965238807353966
 24
0.0541149984003353
 14
-0.2009670550406888
 24
0.0555257259490585
 14
-0.205399254196573
 24
0.0569696470871635
 14
-0.2098204782030511
 24
0.05844676181465
 14
-0.2142307270601265
 24
0.0599570701315182
 14
-0.2186300007677939
 24
0.0615005720377682
 14
-0.223018299326057
 24
0.0630772675333997
 14
-0.2273956227349139
 24
0.0646871566184128
 14
-0.2317619709943681
 24
0.066330239292808
 14
-0.2361173441044127
 24
0.0680065155565852
 14
-0.2404617420650546
 24
0.0697159854097438
 14
-0.2447951648762885
 24
0.0714586488522839
 14
-0.249117612538118
 24
0.0732345058842057
 14
-0.2534290850505396
 24
0.0750435565055096
 14
-0.2577295824135604
 24
0.076885800716195
 14
-0.2620191046271749
 24
0.0787612385162622
 14
-0.2662976516913798
 24
0.0806698699057111
 14
-0.270565223606182
 24
0.0826116948845417
 14
-0.274821820371578
 24
0.084586713452754
 14
-0.2790674419875696
 24
0.0865949256103478
 14
-0.2833020884541533
 24
0.0886363313573235
 14
-0.2875257597713325
 24
0.0907109306936811
 14
-0.2917384559391056
 24
0.0928187236194202
 14
-0.2959307720014408
 24
0.0949549611919878
 14
-0.3000933030023027
 24
0.0971148944688298
 14
-0.3042260489416915
 24
0.0992985234499475
 14
-0.3083290098196105
 24
0.1015058481353397
 14
-0.3124021856360564
 24
0.1037368685250071
 14
-0.3164455763910308
 24
0.105991584618949
 14
-0.3204591820845284
 24
0.1082699964171663
 14
-0.3244430027165564
 24
0.1105721039196583
 14
-0.3283970382871129
 24
0.1128979071264253
 14
-0.3323212887961962
 24
0.1152474060374673
 14
-0.3362157542438062
 24
0.1176206006527842
 14
-0.3400804346299431
 24
0.1200174909723761
 14
-0.3439153299546085
 24
0.122438076996243
 14
-0.3477204402178007
 24
0.1248823587243846
 14
-0.3514957654195214
 24
0.1273503361568014
 14
-0.355241305559769
 24
0.1298420092934927
 14
-0.3589570606385415
 24
0.1323573781344591
 14
-0.3626430306558444
 24
0.1348964426797006
 14
-0.3662992156116758
 24
0.137459202929217
 14
-0.3699256155060322
 24
0.1400456588830084
 14
-0.373522230338919
 24
0.1426558105410745
 14
-0.3770890601103325
 24
0.1452896579034157
 14
-0.3806261048202728
 24
0.147947200970032
 14
-0.3841333644687399
 24
0.150628439740923
 14
-0.3876108390557356
 24
0.1533333742160889
 14
-0.391058528581258
 24
0.1560620043955299
 14
-0.3944764330453072
 24
0.1588143302792457
 14
-0.397864552447885
 24
0.1615903518672366
 14
-0.4012228867889913
 24
0.1643900691595026
 14
-0.4045514360686244
 24
0.1672134821560431
 14
-0.4078502002867825
 24
0.1700605908568589
 14
-0.411119179443471
 24
0.1729313952619493
 14
-0.4143583735386862
 24
0.175825895371315
 14
-0.41756778257243
 24
0.1787440911849554
 14
-0.4207474065446988
 24
0.1816859827028707
 14
-0.4238972454554979
 24
0.184651569925061
 14
-0.427017299304822
 24
0.1876408528515263
 14
-0.4301075680926765
 24
0.1906538314822666
 14
-0.4331680518190542
 24
0.1936905058172818
 14
-0.4361987504839639
 24
0.1967508758565717
 14
-0.4391996640874005
 24
0.1998349416001368
 14
-0.4421707926293621
 24
0.2029427030479767
 14
-0.445112136109854
 24
0.2060741602000917
 14
-0.4480236945288691
 24
0.2092293130564815
 14
-0.4509054678864128
 24
0.2124081616171463
 14
-0.4537574561824886
 24
0.215610705882086
 14
-0.4565796594170877
 24
0.2188369458513006
 14
-0.4593720775902153
 24
0.2220868815247901
 14
-0.4621347107018714
 24
0.2253605129025547
 14
-0.4648675587520543
 24
0.2286578399845942
 14
-0.467570621740764
 24
0.2319788627709085
 14
-0.4702438996680023
 24
0.2353235812614978
 14
-0.4728873925337673
 24
0.238691995456362
 14
-0.4755011003380627
 24
0.2420841053555014
 14
-0.4780850230808831
 24
0.2454999109589155
 14
-0.4806391607622302
 24
0.2489394122666047
 14
-0.4831635133821024
 24
0.2524026092785687
 14
-0.4856580809405067
 24
0.2558895019948075
 14
-0.4881228634374359
 24
0.2594000904153215
 14
-0.4905578608728955
 24
0.2629343745401103
 14
-0.4929630732468802
 24
0.2664923543691742
 14
-0.4953385005593915
 24
0.2700740299025128
 14
-0.4976841428104315
 24
0.2736794011401265
 14
-0.5
 24
0.277308468082015
 14
0.0000000000000018
 24
0.5000000000000001
  0
SPLINE
  5
1E5
330
6B
100
AcDbEntity
  8
0-2
  6
Continuous
 62
   251
370
     5
100
AcDbSpline
210
0.0
220
0.0
230
1.0
 70
     8
 71
     2
 72
     9
 73
     6
 74
     0
 42
0.000000001
 43
0.0000000000001
 40
0.0
 40
0.0
 40
0.0
 40
1.0
 40
2.0
 40
3.0
 40
4.0
 40
4.0
 40
4.0
 10
9070.143345623983
 20
898.9923968707317
 30
0.0
 10
9006.060730469566
 20
1000.393059701466
 30
0.0
 10
8771.716471326457
 20
1118.722950923227
 30
0.0
 10
8498.247542044042
 20
1118.722950923227
 30
0.0
 10
8263.903282900937
 20
1000.393059701466
 30
0.0
 10
8199.820667746517
 20
898.9923968707317
 30
0.0
  0
LINE
  5
1E6
330
6B
100
AcDbEntity
  8
0-2
  6
Continuous
 62
   251
370
     5
100
AcDbLine
 10
8178.650656663013
 20
-1598.971943680455
 30
0.0
 11
8199.820667746517
 21
898.9923968707317
 31
0.0
  0
LINE
  5
1E7
330
6B
100
AcDbEntity
  8
0-2
  6
Continuous
 62
   251
370
     5
100
AcDbLine
 10
9070.143345623983
 20
898.9923968707317
 30
0.0
 11
9307.717914449993
 21
-572.1407523076341
 31
0.0
  0
WIPEOUT
  5
1E8
330
6B
100
AcDbEntity
  8
0-2
  6
Continuous
 62
   251
370
     5
 92
     3176
310
680C0000040000000C0000000E000000120000000C00000016000000000000C20C00000014000000010000003C0C00000700000082000000036DC9D4649DC340004D9938AE9379C0000000000000000005E69EE4DB2DC24000F1BE4220E181C000000000000000002BD72351B02EC2407CF5D23CAE0A82C000000000000000
310
008FF645898A2FC240AE5390760F3482C000000000000000003044058D6A30C240970BF7EF435D82C000000000000000000FC0615C5031C240361D07A94B8682C000000000000000002B6A5BF73B32C2408B88C0A126AF82C000000000000000008642F25D2D33C240984D23DAD4D782C000000000000000001E4926902434
310
C2405B6C2F52560083C00000000000000000F47DF78D2135C240D4E4E409AB2883C0000000000000000008E165572436C24004B74301D35083C00000000000000000597271EC2C37C240EAE24B38CE7883C00000000000000000E8311A4D3B38C2408768FDAE9CA083C00000000000000000B41F60794F39C240DA4758653E
310
C883C00000000000000000BE3B4371693AC240E4805C5BB3EF83C000000000000000000686C334893BC240A3130A91FB1684C000000000000000008BFEE0C3AE3CC2401A006106173E84C000000000000000004FA59B1EDA3DC240484661BB056584C00000000000000000507AF3440B3FC2402BE60AB0C78B84C000000000
310
000000008F7DE8364240C240C5DF5DE45CB284C000000000000000000BAF7AF47E41C24017335A58C5D884C00000000000000000C50EAA7DC142C2401EE0FF0B01FF84C00000000000000000BD9C76D20944C240DCE64EFF0F2585C00000000000000000F358E0F25745C24050474732F24A85C000000000000000006643E7
310
DEAB46C2407B01E9A4A77085C00000000000000000165C8B960548C2405B153457309685C0000000000000000004A3CC196549C240F48228498CBB85C000000000000000003018AB68CA4AC240414AC67ABBE085C000000000000000009ABB2683354CC240476B0DECBD0586C00000000000000000428D3F69A64DC24002E6
310
FD9C932A86C00000000000000000278DF51A1D4FC24074BA978D3C4F86C000000000000000004BBB48989950C2409CE8DABDB87386C00000000000000000AB1739E11B52C2407B70C72D089886C0000000000000000049A2C6F5A353C2400F525DDD2ABC86C00000000000000000255BF1D53155C2405B8D9CCC20E086C000
310
000000000000003F42B981C556C2405E2285FBE90387C0000000000000000096571EF95E58C2401711176A862787C000000000000000002B9B203CFE59C24086595218F64A87C00000000000000000FE0CC04AA35BC240ABFB3606396E87C000000000000000000EADFC244E5DC24087F7C4334F9187C00000000000000000
310
5B7BD6CAFE5EC2401A4DFCA038B487C00000000000000000E7774D3CB560C24063FCDC4DF5D687C00000000000000000B0A261797162C2406405673A85F987C00000000000000000B7FB12823364C2401A689A66E81B88C00000000000000000FC826156FB65C240862477D21E3E88C000000000000000007F384DF6C867C2
310
40A93AFD7D286088C000000000000000003F1CD6619C69C24084AA2C69058288C000000000000000003D2EFC98756BC24013740594B5A388C00000000000000000786EBF9B546DC2405A9787FE38C588C00000000000000000F2DC1F6A396FC2405714B3A88FE688C00000000000000000AA791D042471C2400CEB8792B907
310
89C000000000000000009F44B8691473C240751B06BCB62889C00000000000000000D13DF09A0A75C24096A52D25874989C000000000000000004165C5970677C2406E89FECD2A6A89C00000000000000000EEBA37600879C240FBC678B6A18A89C00000000000000000D93E47F40F7BC2403F5E9CDEEBAA89C00000000000
310
00000002F1F3531D7DC2403A4F694609CB89C0000000000000000069D13D7F307FC240EB99DFEDF9EA89C000000000000000000DE024764981C240533EFFD4BD0A8AC00000000000000000F01CA9386883C240713CC8FB542A8AC000000000000000001088CAC68C85C24046943A62BF498AC000000000000000006D218920
310
B787C240D2455608FD688AC0000000000000000008E9E445E789C24014511BEE0D888AC00000000000000000E1DEDD361D8CC2400BB68913F2A68AC00000000000000000F70274F3588EC240BB74A178A9C58AC000000000000000004B55A77B9A90C2401F8D621D34E48AC000000000000000007E1C1F94E092C240AEAE19
310
7681028BC00000000000000000319F82012A95C240D88813F780208BC0000000000000000063DDD1C37697C2409D1B50A0323E8BC0000000000000000015D70CDBC699C240FD66CF71965B8BC00000000000000000478C33471A9CC240F86A916BAC788BC00000000000000000F8FC4508719EC2409127968D74958BC00000
310
0000000000002929441ECBA0C240C59CDDD7EEB18BC00000000000000000DA102E8928A3C24093CA674A1BCE8BC000000000000000000BB4034989A5C240FDB034E5F9E98BC00000000000000000BB12C55DEDA7C240025044A88A058CC00000000000000000EB2C72C754AAC240A3A79693CD208CC000000000000000009B
310
020B86BFACC240E0B72BA7C23B8CC00000000000000000CB938F992DAFC240B88003E369568CC000000000000000007AE0FF019FB1C2402C021E47C3708CC00000000000000000A9E85BBF13B4C2403C3C7BD3CE8A8CC0000000000000000057ACA3D18BB6C240E62E1B888CA48CC00000000000000000852BD73807B9C240
310
2BDAFD64FCBD8CC000000000000000003366F6F485BBC2400C3E236A1ED78CC00000000000000000615C010608BEC240895A8B97F2EF8CC000000000000000000F0EF86B8DC0C240A22F36ED78088DC000000000000000003C7BDA2616C3C24056BD236BB1208DC00000000000000000E9A3A836A2C5C240A60354119C388D
310
C000000000000000001588629B31C8C2409202C7DF38508DC00000000000000000C2270855C4CAC24017BA7CD687678DC00000000000000000EF8299635ACDC2403A2A75F5887E8DC000000000000000009B9916C7F3CFC240F652B03C3C958DC00000000000000000C66B7F7F90D2C2404E342EACA1AB8DC0000000000000
310
000071F9D38C30D5C24042CEEE43B9C18DC000000000000000009C4214EFD3D7C240D420F20383D78DC00000000000000000474740A67ADAC240FE2B38ECFEEC8DC00000000000000000710758B224DDC240C6EFC0FC2C028EC000000000000000001B835B13D2DFC240266C8C350D178EC0000000000000000045BA4AC982
310
E2C24024A19A969F2B8EC00000000000000000EFAC25D436E5C240BE8EEB1FE43F8EC00000000000000000185BEC33EEE7C240F2347FD1DA538EC00000000000000000C1C49EE8A8EAC240C39355AB83678EC00000000000000000E9E93CF266EDC2402EAB6EADDE7A8EC0000000000000000091CAC65028F0C240367BCAD7
310
EB8D8EC00000000000000000B9663C04EDF2C240D903692AABA08EC0000000000000000061BE9D0CB5F5C24017454AA51CB38EC0000000000000000089D1EA6980F8C240F03E6E4840C58EC0000000000000000030A0231C4FFBC24066F1D41316D78EC00000000000000000572A482321FEC240765C7E079EE88EC0000000
310
0000000000FD6F587FF600C34022806A23D8F98EC0000000000000000023715430CF03C340685C9967C40A8FC00000000000000000C92D3C36AB06C3404CF10AD4621B8FC00000000000000000EFA50F918A09C340CA3EBF68B32B8FC0000000000000000095D9CE406D0CC340E544B625B63B8FC00000000000000000BAC8
310
7945530FC3409A03F00A6B4B8FC000000000000000005F73109F3C12C340EC7A6C18D25A8FC0000000000000000083D9924D2915C340D8AA2B4EEB698FC0000000000000000027FB00511918C34060932DACB6788FC000000000000000004BD85AA90C1BC3408434723234878FC00000000000000000EF70A056031EC34042
310
8EF9E063958FC0000000000000000013C5D158FD20C3409CA0C3B745A38FC00000000000000000B6D4EEAFFA23C340936BD0B6D9B08FC00000000000000000D99FF75BFB26C34025EF1FDE1FBE8FC000000000000000007B26EC5CFF29C340522BB22D18CB8FC000000000000000009D68CCB2062DC3401A2087A5C2D78FC0
310
00000000000000003F66985D1130C3407DCD9E451FE48FC00000000000000000611F505D1F33C3407C33F90D2EF08FC000000000000000000394F3B13036C340185296FEEEFB8FC0000000000000000024C4825B4539C340A614BB0BB10390C00000000000000000C5AFFD595D3CC3408F5C4CAC430990C000000000000000
310
00
100
AcDbWipeout
 90
        0
 10
9307.717914449993
 20
-1026.316086953306
 30
0.0
 11
735.0698292884008
 21
0.0
 31
0.0
 12
0.0
 22
735.0698292884008
 32
0.0
 13
1.0
 23
1.0
340
0
 70
     4
280
     1
281
    50
282
    50
283
     0
360
0
 71
     2
 91
      131
 14
0.4999999999999964
 24
-0.3394931038117655
 14
-0.5000000000000018
 24
-0.1178669244054613
 14
-0.4977423073560754
 24
-0.110800487400995
 14
-0.495423020148003
 24
-0.1037637771390182
 14
-0.4930421383757899
 24
-0.0967567936195307
 14
-0.4905996620394291
 24
-0.0897795368425328
 14
-0.4880955911389275
 24
-0.0828320068080243
 14
-0.48552992567428
 24
-0.0759142035160052
 14
-0.4829026656454882
 24
-0.0690261269664756
 14
-0.4802138110525522
 24
-0.0621677771594354
 14
-0.477463361895472
 24
-0.0553391540948848
 14
-0.4746513181742475
 24
-0.0485402577728236
 14
-0.4717776798888806
 24
-0.0417710881932517
 14
-0.4688424470393695
 24
-0.0350316453561694
 14
-0.4658456196257141
 24
-0.0283219292615765
 14
-0.4627871976479145
 24
-0.0216419399094732
 14
-0.4596671811059725
 24
-0.0149916772998592
 14
-0.4564855699998827
 24
-0.0083711414327347
 14
-0.4532423643296504
 24
-0.0017803323080996
 14
-0.4499375640952739
 24
0.004780750074046
 14
-0.4465711692967549
 24
0.0113121057137022
 14
-0.4431431799340917
 24
0.0178137346108689
 14
-0.4396535960072825
 24
0.0242856367655462
 14
-0.4361024175163291
 24
0.0307278121777339
 14
-0.4324896444612332
 24
0.0371402608474323
 14
-0.4288152768419948
 24
0.0435229827746411
 14
-0.4250793146586105
 24
0.0498759779593606
 14
-0.4212817579110819
 24
0.0561992464015905
 14
-0.4174226065994091
 24
0.0624927881013311
 14
-0.4135018607235921
 24
0.0687566030585821
 14
-0.4095195202836326
 24
0.0749906912733438
 14
-0.4054755852795253
 24
0.0811950527456159
 14
-0.4013700557112774
 24
0.0873696874753986
 14
-0.3972029315788852
 24
0.0935145954626918
 14
-0.3929742128823488
 24
0.0996297767074956
 14
-0.3886838996216664
 24
0.10571523120981
 14
-0.3843319917968433
 24
0.111770958969635
 14
-0.3799184894078742
 24
0.1177969599869704
 14
-0.3754433924547609
 24
0.1237932342618162
 14
-0.3709067009375051
 24
0.1297597817941727
 14
-0.3663084148561069
 24
0.1356966025840398
 14
-0.3616485342105609
 24
0.1416036966314174
 14
-0.3569270590008724
 24
0.1474810639363058
 14
-0.3521439892270397
 24
0.1533287044987044
 14
-0.347299324889061
 24
0.1591466183186137
 14
-0.3423930659869399
 24
0.1649348053960333
 14
-0.3374252125206745
 24
0.1706932657309639
 14
-0.3323957644902649
 24
0.1764219993234046
 14
-0.3273047218957128
 24
0.182121006173356
 14
-0.322152084737013
 24
0.1877902862808181
 14
-0.3169378530141689
 24
0.1934298396457907
 14
-0.3116620267271824
 24
0.1990396662682736
 14
-0.3063246058760534
 24
0.2046197661482674
 14
-0.3009255904607802
 24
0.2101701392857716
 14
-0.2954649804813645
 24
0.2156907856807861
 14
-0.2899427759378028
 24
0.2211817053333114
 14
-0.2843589768300969
 24
0.2266428982433473
 14
-0.2787135831582468
 24
0.2320743644108936
 14
-0.2730065949222542
 24
0.2374761038359505
 14
-0.2672380121221138
 24
0.2428481165185179
 14
-0.261407834757831
 24
0.2481904024585959
 14
-0.2555160628294058
 24
0.2535029616561846
 14
-0.2495626963368363
 24
0.2587857941112837
 14
-0.2435477352801225
 24
0.2640388998238932
 14
-0.2374711796592646
 24
0.2692622787940135
 14
-0.2313330294742642
 24
0.2744559310216441
 14
-0.2251463768334627
 24
0.2796088657721145
 14
-0.2189243138452106
 24
0.2847100923107537
 14
-0.212666840509506
 24
0.2897596106375617
 14
-0.2063739568263507
 24
0.2947574207525383
 14
-0.200045662795743
 24
0.2997035226556837
 14
-0.1936819584176845
 24
0.3045979163469981
 14
-0.1872828436921719
 24
0.3094406018264813
 14
-0.1808483186192085
 24
0.314231579094133
 14
-0.1743783831987926
 24
0.3189708481499536
 14
-0.1678730374309261
 24
0.3236584089939427
 14
-0.1613322813156071
 24
0.3282942616261009
 14
-0.1547561148528356
 24
0.3328784060464278
 14
-0.1481445380426099
 24
0.3374108422549236
 14
-0.1414975508849352
 24
0.3418915702515881
 14
-0.1348151533798081
 24
0.3463205900364215
 14
-0.1280973455272321
 24
0.3506979016094234
 14
-0.1213441273272018
 24
0.3550235049705941
 14
-0.114555498779719
 24
0.3592974001199336
 14
-0.1077314598847838
 24
0.3635195870574419
 14
-0.1008720106423961
 24
0.3676900657831192
 14
-0.0939771510525578
 24
0.3718088362969649
 14
-0.0870468811152687
 24
0.3758758985989799
 14
-0.0800812008305272
 24
0.3798912526891634
 14
-0.0730801101983314
 24
0.3838548985675154
 14
-0.0660436092186831
 24
0.3877668362340365
 14
-0.0589716978915842
 24
0.3916270656887262
 14
-0.0518643762170363
 24
0.3954355869315846
 14
-0.0447216441950342
 24
0.3991923999626119
 14
-0.0375435018255814
 24
0.4028975047818082
 14
-0.0303299491086744
 24
0.4065509013891728
 14
-0.0230809860443184
 24
0.4101525897847067
 14
-0.0157966126325082
 24
0.4137025699684089
 14
-0.0084768288732473
 24
0.4172008419402802
 14
-0.0011216347665322
 24
0.4206474057003202
 14
0.0062689696876319
 24
0.4240422612485288
 14
0.0136949844892484
 24
0.4273854085849065
 14
0.0211564096383157
 24
0.4306768477094527
 14
0.0286532451348371
 24
0.4339165786221679
 14
0.0361854909788093
 24
0.4371046013230517
 14
0.0437531471702339
 24
0.4402409158121043
 14
0.051356213709111
 24
0.4433255220893257
 14
0.0589946905954406
 24
0.4463584201547159
 14
0.0666685778292209
 24
0.4493396100082747
 14
0.0743778754104518
 24
0.4522690916500025
 14
0.0821225833391335
 24
0.4551468650798989
 14
0.0899027016152694
 24
0.4579729302979643
 14
0.0977182302388595
 24
0.4607472873041982
 14
0.1055691692099003
 24
0.4634699360986012
 14
0.1134555185283919
 24
0.4661408766811728
 14
0.1213772781943359
 24
0.4687601090519131
 14
0.1293344482077288
 24
0.4713276332108223
 14
0.1373270285685759
 24
0.4738434491579002
 14
0.1453550192768756
 24
0.476307556893147
 14
0.1534184203326276
 24
0.4787199564165623
 14
0.1615172317358304
 24
0.4810806477281466
 14
0.1696514534864857
 24
0.4833896308278998
 14
0.1778210855845934
 24
0.4856469057158217
 14
0.1860261280301501
 24
0.4878524723919122
 14
0.194266580823161
 24
0.4900063308561715
 14
0.2025424439636225
 24
0.4921084811085996
 14
0.2108537174515384
 24
0.4941589231491965
 14
0.2192004012869067
 24
0.4961576569779622
 14
0.2275824954697239
 24
0.4981046825948965
 14
0.2359999999999953
 24
0.4999999999999998
 14
0.4999999999999964
 24
-0.3394931038117655
  0
SPLINE
  5
1E9
330
6B
100
AcDbEntity
  8
0-2
  6
Continuous
 62
   251
370
     5
100
AcDbSpline
210
0.0
220
0.0
230
1.0
 70
     8
 71
     2
 72
     7
 73
     4
 74
     0
 42
0.000000001
 43
0.0000000000001
 40
0.0
 40
0.0
 40
0.0
 40
1.0
 40
2.0
 40
2.0
 40
2.0
 10
9307.717914449993
 20
-572.1407523076341
 30
0.0
 10
9360.099469441415
 20
-738.708760573676
 30
0.0
 10
9650.314327778146
 20
-982.342132771073
 30
0.0
 10
9848.729308806254
 20
-1026.316086953306
 30
0.0
  0
WIPEOUT
  5
1EA
330
6B
100
AcDbEntity
  8
0-2
  6
Continuous
 62
   251
370
     5
 92
     1640
310
68060000040000000C0000000E000000120000000C00000016000000000000C20C00000014000000010000003C0600000700000042000000709EA6E86490C240E894ADC9EDD895C00000000000000000DA0939F736A6C340804A2DD08CD894C000000000000000006AFF33D0B5A5C34011900DBDDAC094C000000000000000
310
005912D6512BA5C340BCAE43E24CA994C00000000000000000A5421F7C97A4C34081A6CF3FE39194C000000000000000004F900F4FFAA3C3406077B1D59D7A94C0000000000000000057FBA6CA53A3C3405921E9A37C6394C00000000000000000BC83E5EEA3A2C3406CA476AA7F4C94C000000000000000007E29CBBBEAA1
310
C3409A005AE9A63594C000000000000000009EEC573128A1C340E2359360F21E94C000000000000000001CCD8B4F5CA0C34043442210620894C00000000000000000F8CA6616879FC340C02B07F8F5F193C0000000000000000031E6E885A89EC34056EC4118AEDB93C00000000000000000C81E129EC09DC3400686D2708A
310
C593C00000000000000000BC74E25ECF9CC340D2F8B8018BAF93C000000000000000000FE859C8D49BC340B544F5CAAF9993C00000000000000000BF7878DAD09AC340B56987CCF88393C00000000000000000CD263E95C399C340CE676F06666E93C0000000000000000039F2AAF8AC98C340003FAD78F75893C000000000
310
0000000002DBBE048D97C3404EEF4023AD4393C0000000000000000029E179B96396C340B6782A06872E93C00000000000000000AD04DC163195C34037DB6921851993C000000000000000008F45E51CF593C340D216FF74A70493C00000000000000000CFA395CBAF92C340882BEA00EEEF92C000000000000000006C1FED
310
226191C34058192BC558DB92C0000000000000000068B8EB220990C34042E0C1C1E7C692C00000000000000000C16E91CBA78EC3404680AEF69AB292C000000000000000007842DE1C3D8DC34064F9F063729E92C000000000000000008C33D216C98BC3409D4B89096E8A92C00000000000000000FE416DB94B8AC340F076
310
77E78D7692C00000000000000000CE6DAF04C588C3405D7BBBFDD16292C00000000000000000FCB698F83487C340E358554C3A4F92C00000000000000000871D29959B85C340850F45D3C63B92C0000000000000000070A160DAF883C3403F9F8A92772892C00000000000000000B7423FC84C82C3401508268A4C1592C000
310
000000000000005B01C55E9780C340044A17BA450292C000000000000000005DDDF19DD87EC3400E655E2263EF91C00000000000000000BDD6C585107DC3403259FBC2A4DC91C000000000000000007AED40163F7BC3407026EE9B0ACA91C000000000000000009621634F6479C340C8CC36AD94B791C00000000000000000
310
0E732C318077C340394CD5F642A591C00000000000000000E4E19CBB9275C340C5A4C978159391C00000000000000000186EB4EE9B73C3406DD613330C8191C00000000000000000AA1773CA9B71C3402EE1B325276F91C0000000000000000099DED84E926FC34008C5A950665D91C00000000000000000E6C2E57B7F6DC3
310
40FD81F5B3C94B91C0000000000000000091C49951636BC3400C18974F513A91C000000000000000009AE3F4CF3D69C34036878E23FD2891C00000000000000000FF1FF7F60E67C34079CFDB2FCD1791C00000000000000000C379A0C6D664C340D6F07E74C10691C00000000000000000E5F0F03E9562C3404EEB77F1D9F5
310
90C000000000000000006585E85F4A60C340DFBEC6A616E590C0000000000000000041378729F65DC3408B6B6B9477D490C000000000000000007B06CD9B985BC34051F165BAFCC390C0000000000000000013F3B9B63159C3403150B618A6B390C0000000000000000009FD4D7AC156C3402B885CAF73A390C00000000000
310
0000005D2489E64754C3403F99587E659390C000000000000000000E696BFBC451C3406E83AA857B8390C000000000000000001DCBF4B8384FC340B74652C5B57390C000000000000000008A4A251FA34CC3401AE34F3D146490C0000000000000000054E7FC2D044AC3409758A3ED965490C000000000000000007CA17BE5
310
5B47C3402EA74CD63D4590C000000000000000000279A145AA44C340DFCE4BF7083690C00000000000000000E66D6E4EEF41C340AACFA050F82690C000000000000000002780E2FF2A3FC34090A94BE20B1890C00000000000000000C6AFFD595D3CC340905C4CAC430990C00000000000000000
100
AcDbWipeout
 90
        0
 10
9504.788349940645
 20
-1398.232214653219
 30
0.0
 11
555.6410697006686
 21
0.0
 31
0.0
 12
0.0
 22
555.6410697006686
 32
0.0
 13
1.0
 23
1.0
340
0
 70
     4
280
     1
281
    50
282
    50
283
     0
360
0
 71
     2
 91
       67
 14
-0.5
 24
0.5
 14
0.5
 24
0.3846472925303606
 14
0.498184073601692
 24
0.3739859116496649
 14
0.4962368067945739
 24
0.3633881890444486
 14
0.494158199578635
 24
0.3528541247147117
 14
0.491948251953886
 24
0.3423837186604537
 14
0.4896069639203198
 24
0.3319769708816747
 14
0.4871343354779363
 24
0.321633881378375
 14
0.4845303666267355
 24
0.3113544501505552
 14
0.4817950573667211
 24
0.3011386771982143
 14
0.478928407697893
 24
0.2909865625213524
 14
0.4759304176202512
 24
0.2808981061199702
 14
0.4728010871337887
 24
0.2708733079940666
 14
0.4695404162385124
 24
0.2609121681436428
 14
0.4661484049344224
 24
0.2510146865686984
 14
0.4626250532215188
 24
0.2411808632692325
 14
0.4589703610997979
 24
0.2314106982452464
 14
0.4551843285692598
 24
0.2217041914967397
 14
0.4512669556299116
 24
0.2120613430237115
 14
0.4472182422817461
 24
0.2024821528261631
 14
0.4430381885247634
 24
0.1929666209040941
 14
0.4387267943589634
 24
0.1835147472575036
 14
0.4342840597843498
 24
0.1741265318863925
 14
0.4297099848009225
 24
0.1648019747907612
 14
0.4250045694086779
 24
0.1555410759706088
 14
0.4201678136076232
 24
0.1463438354259354
 14
0.4151997173977477
 24
0.1372102531567414
 14
0.4101002807790621
 24
0.1281403291630268
 14
0.4048695037515557
 24
0.1191340634447915
 14
0.3995073863152356
 24
0.1101914560020356
 14
0.3940139284701019
 24
0.1013125068347587
 14
0.3883891302161544
 24
0.0924972159429607
 14
0.3826329915533897
 24
0.0837455833266425
 14
0.3767455124818078
 24
0.0750576089858028
 14
0.3707266930014157
 24
0.066433292920443
 14
0.3645765331122028
 24
0.0578726351305621
 14
0.3582950328141763
 24
0.0493756356161605
 14
0.3518821921073361
 24
0.0409422943772384
 14
0.3453380109916786
 24
0.0325726114137952
 14
0.338662489467211
 24
0.0242665867258314
 14
0.3318556275339191
 24
0.0160242203133465
 14
0.324917425191817
 24
0.007845512176341
 14
0.3178478824408977
 24
-0.0002695376851847
 14
0.3106469992811647
 24
-0.0083209292712314
 14
0.3033147757126144
 24
-0.0163086625817992
 14
0.2958512117352505
 24
-0.0242327376168878
 14
0.2882563073490729
 24
-0.0320931543764968
 14
0.2805300625540781
 24
-0.0398899128606265
 14
0.272672477350266
 24
-0.0476230130692774
 14
0.2646835517376402
 24
-0.0552924550024492
 14
0.2565632857162008
 24
-0.0628982386601411
 14
0.2483116792859477
 24
-0.0704403640423545
 14
0.2399287324468737
 24
-0.0779188311490882
 14
0.2314144451989861
 24
-0.0853336399803426
 14
0.2227688175422848
 24
-0.0926847905361181
 14
0.2139918494767663
 24
-0.0999722828164142
 14
0.2050835410024376
 24
-0.1071961168212312
 14
0.1960438921192882
 24
-0.1143562925505686
 14
0.186872902827325
 24
-0.1214528100044268
 14
0.1775705731265482
 24
-0.128485669182806
 14
0.1681369030169542
 24
-0.1354548700857059
 14
0.1585718924985429
 24
-0.1423604127131264
 14
0.1488755415713214
 24
-0.1492022970650679
 14
0.1390478502352828
 24
-0.1559805231415303
 14
0.1290888184904304
 24
-0.1626950909425131
 14
0.1189984463367608
 24
-0.1693460004680167
 14
-0.5
 24
0.5
  0
SPLINE
  5
1EB
330
6B
100
AcDbEntity
  8
0-2
  6
Continuous
 62
   251
370
     5
100
AcDbSpline
210
0.0
220
0.0
230
1.0
 70
     8
 71
     2
 72
     6
 73
     3
 74
     0
 42
0.000000001
 43
0.0000000000001
 40
0.0
 40
0.0
 40
0.0
 40
1.0
 40
1.0
 40
1.0
 10
10060.42941964131
 20
-1334.13751288192
 30
0.0
 10
10029.30896447881
 20
-1144.006739980248
 30
0.0
 10
9848.729308806254
 20
-1026.316086953306
 30
0.0
  0
LINE
  5
1EC
330
6B
100
AcDbEntity
  8
0-2
  6
Continuous
 62
   251
370
     5
100
AcDbLine
 10
8178.650656663013
 20
-1598.971943680455
 30
0.0
 11
10060.42941964131
 21
-1598.971943680455
 31
0.0
  0
LINE
  5
1ED
330
6B
100
AcDbEntity
  8
0-2
  6
Continuous
 62
   251
370
     5
100
AcDbLine
 10
10060.42941964131
 20
-1598.971943680455
 30
0.0
 11
10060.42941964131
 21
-1334.13751288192
 31
0.0
  0
ENDBLK
  5
6D
330
6B
100
AcDbEntity
  8
0
100
AcDbBlockEnd
  0
BLOCK
  5
6F
330
6E
100
AcDbEntity
  8
0
100
AcDbBlockBegin
  2
グループ-11
 70
     0
 10
0.0
 20
0.0
 30
0.0
  3
グループ-11
  1

  0
WIPEOUT
  5
1EE
330
6E
100
AcDbEntity
  8
0-2
  6
Continuous
 62
   251
370
     5
 92
     6248
310
68180000040000000C0000000E000000120000000C00000016000000000000C20C00000014000000010000003C18000007000000020100000A940A2F6EF9C440F020372BB68592C0000000000000000054774988D91FC440B8B6D72EF78C95C00000000000000000D3DB9985DB20C4406294FC71999995C000000000000000
310
00FEE658D4E021C440B076F59626A695C00000000000000000D4988674E922C440A35DC29D9EB295C0000000000000000054F12266F523C4403B49638601BF95C0000000000000000082F02DA90425C4407839D8504FCB95C000000000000000005996A73D1726C4405A2E21FD87D795C00000000000000000DEE28F232D27
310
C440E0273E8BABE395C000000000000000000BD6E65A4628C4400C262FFBB9EF95C00000000000000000E56FACE36229C440DC28F44CB3FB95C000000000000000006CB0E0BD822AC44052308D80970796C000000000000000009D9783E9A52BC4406C3CFA95661396C000000000000000007A259566CC2CC4402A4D3B8D20
310
1F96C00000000000000000025A1535F62DC4408D625066C52A96C0000000000000000035350455232FC440967C3921553696C0000000000000000013B761C65330C440429BF6BDCF4196C000000000000000009DDF2D898731C44094BE873C354D96C00000000000000000D1AE689DBE32C4408AE6EC9C855896C000000000
310
00000000B1241203F933C440261326DFC06396C000000000000000003E412ABA3635C44066443303E76E96C000000000000000007604B1C27736C4404B7A1409F87996C00000000000000000596EA61CBC37C440D4B4C9F0F38496C00000000000000000E77E0AC80339C44004F452BADA8F96C000000000000000002136DD
310
C44E3AC440D737B065AC9A96C0000000000000000005941E139D3BC4405080E1F268A596C000000000000000009798CEB2EE3CC4406ECDE66110B096C00000000000000000D143EDA3433EC440301FC0B2A2BA96C00000000000000000B9957AE69B3FC44096756DE51FC596C000000000000000004B8E767AF740C440A2D0
310
EEF987CF96C000000000000000008A2DE15F5642C440523044F0DAD996C000000000000000007273BA96B843C440A8946DC818E496C000000000000000000860021F1E45C440A2FD6A8241EE96C0000000000000000048F3B8F88646C440406B3C1E55F896C00000000000000000332DDE23F347C44083DDE19B530297C000
310
00000000000000C90D72A06249C4406C545BFB3C0C97C000000000000000000C95746ED54AC440F8CFA83C111697C00000000000000000F9C2E58D4B4CC4402B50CA5FD01F97C000000000000000009297C5FEC44DC44002D5BF647A2997C00000000000000000D71214C1414FC4407E5E894B0F3397C00000000000000000
310
C634D1D4C150C4409EEC26148F3C97C0000000000000000062FDFC394552C440647F98BEF94597C00000000000000000A76C97F0CB53C440CE16DE4A4F4F97C000000000000000009A82A0F85555C440DEB2F7B88F5897C00000000000000000373F1852E356C4409153E508BB6197C0000000000000000080A2FEFC7358C4
310
40EAF8A63AD16A97C0000000000000000074AC53F9075AC440E8A23C4ED27397C00000000000000000145D17479F5BC4408A51A643BE7C97C000000000000000005FB449E6395DC440D004E41A958597C0000000000000000054B2EAD6D75EC440BCBCF5D3568E97C00000000000000000F656FA187960C4404C79DB6E0397
310
97C0000000000000000043A278AC1D62C440823A95EB9A9F97C000000000000000003B946591C563C4405C00234A1DA897C00000000000000000DF2CC1C77065C440DBCA848A8AB097C000000000000000002D6C8B4F1F67C440FF99BAACE2B897C000000000000000002852C428D168C440C86DC4B025C197C00000000000
310
000000CEDE6B53866AC4403646A29653C997C00000000000000000201282CF3E6CC4404823545E6CD197C000000000000000001CEC069DFA6DC440FF04DA0770D997C00000000000000000C36CFABBB96FC4405CEB33935EE197C0000000000000000017945C2C7C71C4405CD6610038E997C0000000000000000016622DEE
310
4173C44002C6634FFCF097C00000000000000000C1D66C010B75C4404CBA3980ABF897C0000000000000000016F21A66D776C4403CB3E392450098C0000000000000000017B4371CA778C440CFB06187CA0798C00000000000000000C41CC3237A7AC44008B3B35D3A0F98C000000000000000004D8285704F7CC4408A3F61
310
DA901698C00000000000000000E53A47F6257EC440FADBF1C1C91D98C000000000000000008D4608B5FD7FC44058886514E52498C0000000000000000042A5C8ACD681C440A344BCD1E22B98C00000000000000000085788DDB083C440DC10F6F9C23298C00000000000000000DA5B47478C85C44004ED128D853998C00000
310
000000000000BDB305EA6887C44018D9128B2A4098C00000000000000000AF5EC3C54689C4401CD5F5F3B14698C00000000000000000AF5C80DA258BC4400DE1BBC71B4D98C00000000000000000BEAD3C28068DC440ECFC6406685398C00000000000000000DC51F8AEE78EC440B828F1AF965998C0000000000000000008
310
49B36ECA90C440726460C4A75F98C0000000000000000043936D67AE92C4401AB0B2439B6598C000000000000000008E3027999394C440B10BE82D716B98C00000000000000000E720E0037A96C44035770083297198C000000000000000004F6498A76198C440A6F2FB42C47698C00000000000000000C6FA4F844A9AC440
310
057EDA6D417C98C000000000000000004DE4069A349CC44052199C03A18198C00000000000000000E120BDE81F9EC4408DC44004E38698C0000000000000000085B072700CA0C440B67FC86F078C98C0000000000000000036932731FAA1C440CD4A33460E9198C00000000000000000F8C8DB2AE9A3C440D2258187F79598
310
C00000000000000000C9518F5DD9A5C440C410B233C39A98C00000000000000000A72D42C9CAA7C440A40BC64A719F98C00000000000000000965CF46DBDA9C4407216BDCC01A498C0000000000000000092DEA54BB1ABC4402E3197B974A898C000000000000000009DB35662A6ADC440D65B5411CAAC98C0000000000000
310
0000B7DB06B29CAFC4406E96F4D301B198C00000000000000000E256B63A94B1C440F3E077011CB598C000000000000000001A2565FC8CB3C440663BDE9918B998C00000000000000000614613F786B5C440C7A5279DF7BC98C00000000000000000B5BAC02A82B7C4401620540BB9C098C000000000000000001A826D977E
310
B9C44052AA63E45CC498C000000000000000008D9C193D7CBBC4407D445628E3C798C000000000000000000F0AC51B7BBDC44094EE2BD74BCB98C00000000000000000A0CA6F337BBFC4409AA8E4F096CE98C0000000000000000042DE19847CC1C4408E728075C4D198C00000000000000000EF44C30D7FC3C440704CFF64
310
D4D498C00000000000000000AEFE6BD082C5C4403F3661BFC6D798C00000000000000000790B14CC87C7C440FD2FA6849BDA98C00000000000000000556BBB008EC9C440A939CEB452DD98C000000000000000003F1E626E95CBC4404253D94FECDF98C00000000000000000372408159ECDC440C87CC75568E298C0000000
310
00000000003F7DADF4A7CFC4403DB698C6C6E498C000000000000000005729520DB3D1C4409FFF4CA207E798C000000000000000007C28F65EBFD3C440F058E4E82AE998C00000000000000000B17A99E9CCD5C4402EC25E9A30EB98C00000000000000000F31F3CADDBD7C4405A3BBCB618ED98C000000000000000004718
310
DEA9EBD9C44074C4FC3DE3EE98C00000000000000000A8637FDFFCDBC4407C5D203090F098C000000000000000001702204E0FDEC4407106278D1FF298C0000000000000000096F3BFF522E0C44054BF105591F398C0000000000000000023385FD637E2C4402588DD87E5F498C00000000000000000BFCFFDEF4DE4C440E4
310
608D251CF698C000000000000000006ABA9B4265E6C4409049202E35F798C0000000000000000025F838CE7DE8C4402A4296A130F898C00000000000000000ED88D59297EAC440B24AEF7F0EF998C00000000000000000C56C7190B2ECC44029632BC9CEF998C00000000000000000ADA30CC7CEEEC4408D8B4A7D71FA98C0
310
0000000000000000A12DA736ECF0C440DEC34C9CF6FA98C00000000000000000A50A41DF0AF3C4401E0C32265EFB98C00000000000000000BA3ADAC02AF5C4404C64FA1AA8FB98C00000000000000000DCBD72DB4BF7C44067CCA57AD4FB98C000000000000000000C940A2F6EF9C44070443445E3FB98C000000000000000
310
003C6AA28290FBC44067CCA57AD4FB98C000000000000000005EED3A9DB1FDC4404C64FA1AA8FB98C00000000000000000711DD47ED1FFC4401E0C32265EFB98C0000000000000000075FA6D27F001C540DEC34C9CF6FA98C000000000000000006B8408970D04C5408D8B4A7D71FA98C0000000000000000052BBA3CD2906
310
C54029632BC9CEF998C00000000000000000299F3FCB4408C540B24AEF7F0EF998C00000000000000000F12FDC8F5E0AC5402A4296A130F898C00000000000000000AB6D791B770CC5409049202E35F798C000000000000000005758176E8E0EC540E4608D251CF698C00000000000000000F3EFB587A410C5402588DD87E5
310
F498C0000000000000000082345568B912C54054BF105591F398C00000000000000000FF25F50FCD14C5407106278D1FF298C0000000000000000070C4957EDF16C5407C5D203090F098C00000000000000000D10F37B4F018C54074C4FC3DE3EE98C000000000000000002308D9B0001BC5405A3BBCB618ED98C000000000
310
0000000065AD7B740F1DC5402EC25E9A30EB98C000000000000000009AFF1EFF1C1FC540F058E4E82AE998C00000000000000000C1FEC2502921C5409FFF4CA207E798C00000000000000000D7AA67693423C5403DB698C6C6E498C00000000000000000DE030D493E25C540C87CC75568E298C00000000000000000D709B3
310
EF4627C5404253D94FECDF98C00000000000000000C2BC595D4E29C540A939CEB452DD98C000000000000000009D1C0192542BC540FD2FA6849BDA98C000000000000000006729A98D592DC5403F3661BFC6D798C0000000000000000026E351505D2FC540704CFF64D4D498C00000000000000000D349FBD95F31C5408E72
310
8075C4D198C00000000000000000745DA52A6133C5409AA8E4F096CE98C00000000000000000061E50426135C54094EE2BD74BCB98C00000000000000000888BFB206037C5407D445628E3C798C00000000000000000FBA5A7C65D39C54052AA63E45CC498C00000000000000000606D54335A3BC5401620540BB9C098C000
310
00000000000000B7E10167553DC540C7A5279DF7BC98C00000000000000000FE02B0614F3FC540663BDE9918B998C0000000000000000036D15E234841C540F3E077011CB598C000000000000000005E4C0EAC3F43C5406E96F4D301B198C000000000000000007974BEFB3545C540D65B5411CAAC98C00000000000000000
310
83496F122B47C5402E3197B974A898C0000000000000000080CB20F01E49C5407216BDCC01A498C000000000000000006FFAD294114BC540A40BC64A719F98C000000000000000004DD68500034DC540C410B233C39A98C000000000000000001E5F3933F34EC540D2258187F79598C00000000000000000DE94ED2CE250C5
310
40CD4A33460E9198C000000000000000009277A2EDCF52C540B67FC86F078C98C0000000000000000034075875BC54C5408DC44004E38698C00000000000000000C8430EC4A756C54052199C03A18198C000000000000000004F2DC5D99158C540057EDA6D417C98C00000000000000000C6C37CB67A5AC540A6F2FB42C476
310
98C000000000000000002E07355A625CC54035770083297198C0000000000000000087F7EDC4485EC540B10BE82D716B98C00000000000000000D294A7F62D60C5401AB0B2439B6598C000000000000000000DDF61EF1162C540726460C4A75F98C0000000000000000039D61CAFF463C540B828F1AF965998C00000000000
310
000000577AD835D665C540ECFC6406685398C0000000000000000066CB9483B667C5400DE1BBC71B4D98C0000000000000000066C951989569C5401CD5F5F3B14698C0000000000000000058740F74736BC54018D9128B2A4098C000000000000000003ACCCD16506DC54004ED128D853998C000000000000000000DD18C80
310
2B6FC540DC10F6F9C23298C00000000000000000D3824CB10571C540A344BCD1E22B98C0000000000000000088E10CA9DE72C54058886514E52498C000000000000000002FEDCD67B674C540FADBF1C1C91D98C00000000000000000C7A58FED8C76C5408A3F61DA901698C00000000000000000510B523A6278C54008B3B3
310
5D3A0F98C00000000000000000FD73DD41357AC540CFB06187CA0798C00000000000000000FE35FAF7047CC5403CB3E392450098C000000000000000005451A85CD17DC5404CBA3980ABF897C00000000000000000FEC5E76F9A7FC54002C6634FFCF097C00000000000000000FE93B8316081C5405CD6610038E997C00000
310
00000000000052BB1AA22283C5405CEB33935EE197C00000000000000000F83B0EC1E184C540FF04DA0770D997C00000000000000000F515938E9D86C5404823545E6CD197C000000000000000004749A90A5688C5403646A29653C997C00000000000000000EDD550350B8AC540C86DC4B025C197C00000000000000000E8
310
BB890EBD8BC540FF99BAACE2B897C0000000000000000036FB53966B8DC540DBCA848A8AB097C00000000000000000DA93AFCC168FC5405C00234A1DA897C00000000000000000D2859CB1BE90C540823A95EB9A9F97C000000000000000001FD11A456392C5404C79DB6E039797C00000000000000000C1752A870494C540
310
BCBCF5D3568E97C00000000000000000B673CB77A295C540D004E41A958597C0000000000000000001CBFD163D97C5408A51A643BE7C97C00000000000000000A17BC164D498C540E8A23C4ED27397C0000000000000000094851661689AC540EAF8A63AD16A97C00000000000000000DDE8FC0BF99BC5409153E508BB6197
310
C000000000000000007BA57465869DC540DEB2F7B88F5897C000000000000000006DBB7D6D109FC540CE16DE4A4F4F97C00000000000000000B32A182497A0C540647F98BEF94597C000000000000000004FF343891AA2C5409EEC26148F3C97C000000000000000003E15019D9AA3C5407E5E894B0F3397C0000000000000
310
000082904F5F17A5C54002D5BF647A2997C000000000000000001B652FD090A6C5402B50CA5FD01F97C000000000000000000993A0EF06A8C540F8CFA83C111697C000000000000000004C1AA3BD79A9C5406C545BFB3C0C97C00000000000000000E1FA363AE9AAC54083DDE19B530297C00000000000000000CD345C6555
310
ACC540406B3C1E55F896C000000000000000000DC8123FBEADC540A2FD6A8241EE96C00000000000000000A2B45AC723AFC540A8946DC818E496C000000000000000008BFA33FE85B0C540523044F0DAD996C00000000000000000CA999EE3E4B1C540A2D0EEF987CF96C000000000000000005C929A7740B3C54096756DE5
310
1FC596C0000000000000000044E427BA98B4C540301FC0B2A2BA96C000000000000000007E8F46ABEDB5C5406ECDE66110B096C000000000000000001094F64A3FB7C5405080E1F268A596C00000000000000000F4F137998DB8C540D737B065AC9A96C000000000000000002EA90A96D8B9C54004F452BADA8F96C0000000
310
0000000000BCB96E4120BBC540D4B4C9F0F38496C000000000000000009E23649B64BCC5404B7A1409F87996C00000000000000000D5E6EAA3A5BDC54066443303E76E96C000000000000000006203035BE3BEC540261326DFC06396C000000000000000004179ACC01DC0C5408AE6EC9C855896C000000000000000007748
310
E7D454C1C54094BE873C354D96C000000000000000000271B39788C2C540429BF6BDCF4196C00000000000000000DFF21009B9C3C540967C3921553696C0000000000000000012CEFF28E6C4C5408D625066C52A96C000000000000000009A0280F70FC6C5402A4D3B8D201F96C000000000000000007790917436C7C5406C
310
3CFA95661396C00000000000000000A77734A059C8C54052308D80970796C000000000000000002DB8687A79C9C540DC28F44CB3FB95C0000000000000000007522E0396CAC5400C262FFBB9EF95C000000000000000003645853AAFCBC540E0273E8BABE395C00000000000000000BB916D20C5CCC5405A2E21FD87D795C0
310
00000000000000009237E7B4D7CDC5407839D8504FCB95C00000000000000000BF36F2F7E6CEC5403B49638601BF95C00000000000000000418F8EE9F2CFC540A35DC29D9EB295C000000000000000001741BC89FBD0C540B076F59626A695C00000000000000000424C7BD800D2C5406294FC71999995C000000000000000
310
00C0B0CBD502D3C540B8B6D72EF78C95C00000000000000000
100
AcDbWipeout
 90
        0
 10
10303.69947164847
 20
-1598.971943680455
 30
0.0
 11
870.3226778774642
 21
0.0
 31
0.0
 12
0.0
 22
870.3226778774642
 32
0.0
 13
1.0
 23
1.0
340
0
 70
     4
280
     1
281
    50
282
    50
283
     0
360
0
 71
     2
 91
      259
 14
0.0
 24
0.0248382525656581
 14
-0.5
 24
0.2475297844836437
 14
-0.4976841428104315
 24
0.2511588514255323
 14
-0.4953385005593915
 24
0.2547642226631459
 14
-0.4929630732468784
 24
0.2583458981964846
 14
-0.4905578608728955
 24
0.2619038780255483
 14
-0.4881228634374359
 24
0.2654381621503372
 14
-0.4856580809405067
 24
0.2689487505708512
 14
-0.4831635133821024
 24
0.27243564328709
 14
-0.4806391607622302
 24
0.2758988402990541
 14
-0.4780850230808831
 24
0.2793383416067432
 14
-0.4755011003380609
 24
0.2827541472101576
 14
-0.4728873925337673
 24
0.286146257109297
 14
-0.4702438996680023
 24
0.289514671304161
 14
-0.467570621740764
 24
0.2928593897947502
 14
-0.4648675587520543
 24
0.296180412581065
 14
-0.4621347107018714
 24
0.2994777396631041
 14
-0.459372077590217
 24
0.3027513710408687
 14
-0.4565796594170912
 24
0.3060013067143581
 14
-0.4537574561824922
 24
0.3092275466835728
 14
-0.4509054678864182
 24
0.3124300909485125
 14
-0.4480236945288727
 24
0.3156089395091772
 14
-0.445112136109854
 24
0.3187640923655668
 14
-0.4421707926293639
 24
0.3218955495176821
 14
-0.4391996640874005
 24
0.3250033109655219
 14
-0.4361987504839675
 24
0.3280873767090871
 14
-0.4331680518190577
 24
0.3311477467483774
 14
-0.43010756809268
 24
0.3341844210833926
 14
-0.4270172993048256
 24
0.3371973997141327
 14
-0.4238972454555014
 24
0.3401866826405979
 14
-0.4207474065447023
 24
0.3431522698627882
 14
-0.4175677825724335
 24
0.3460941613807038
 14
-0.4143583735386898
 24
0.3490123571943442
 14
-0.4111191794434745
 24
0.3519068573037096
 14
-0.4078502002867861
 24
0.3547776617088001
 14
-0.404551436068628
 24
0.3576247704096158
 14
-0.4012228867889949
 24
0.3604481834061561
 14
-0.3978645524478903
 24
0.3632479006984222
 14
-0.3944764330453125
 24
0.366023922286413
 14
-0.3910585285812616
 24
0.3687762481701289
 14
-0.3876108390557391
 24
0.3715048783495698
 14
-0.3841333644687435
 24
0.374209812824736
 14
-0.3806261048202781
 24
0.376891051595627
 14
-0.377089060110336
 24
0.3795485946622434
 14
-0.3735222303389225
 24
0.3821824420245845
 14
-0.3699256155060375
 24
0.3847925936826508
 14
-0.3662992156116793
 24
0.3873790496364422
 14
-0.3626430306558479
 24
0.3899418098859586
 14
-0.358957060638545
 24
0.3924808744311998
 14
-0.3552413055597725
 24
0.3949962432721663
 14
-0.351495765419525
 24
0.3974879164088578
 14
-0.3477204402178042
 24
0.3999558938412746
 14
-0.343915329954612
 24
0.4024001755694162
 14
-0.3400804346299466
 24
0.4048207615932828
 14
-0.3362157542438098
 24
0.4072176519128747
 14
-0.3323212887961997
 24
0.4095908465281917
 14
-0.3283970382871164
 24
0.4119403454392336
 14
-0.3244430027165599
 24
0.4142661486460006
 14
-0.3204591820845319
 24
0.4165682561484927
 14
-0.3164455763910343
 24
0.41884666794671
 14
-0.3124021856360599
 24
0.4211013840406521
 14
-0.3083290098196141
 24
0.4233324044303195
 14
-0.304226048941695
 24
0.4255397291157117
 14
-0.3000933030023063
 24
0.4277233580968292
 14
-0.2959307720014426
 24
0.4298832913736714
 14
-0.2917384559391074
 24
0.432019528946239
 14
-0.2875257597713325
 24
0.4341273218719781
 14
-0.2833020884541533
 24
0.4362019212083355
 14
-0.2790674419875678
 24
0.4382433269553112
 14
-0.274821820371578
 24
0.4402515391129052
 14
-0.2705652236061802
 24
0.4422265576811173
 14
-0.2662976516913798
 24
0.4441683826599481
 14
-0.2620191046271731
 24
0.4460770140493968
 14
-0.2577295824135586
 24
0.447952451849464
 14
-0.2534290850505396
 24
0.4497946960601495
 14
-0.2491176125381163
 24
0.4516037466814533
 14
-0.2447951648762867
 24
0.4533796037133753
 14
-0.2404617420650528
 24
0.4551222671559154
 14
-0.2361173441044127
 24
0.456831737009074
 14
-0.2317619709943664
 24
0.4585080132728512
 14
-0.2273956227349139
 24
0.4601510959472463
 14
-0.223018299326057
 24
0.4617609850322595
 14
-0.2186300007677939
 24
0.463337680527891
 14
-0.2142307270601247
 24
0.464881182434141
 14
-0.2098204782030511
 24
0.4663914907510092
 14
-0.2053992541965712
 24
0.4678686054784957
 14
-0.2009670550406888
 24
0.4693125266166007
 14
-0.1965238807353966
 24
0.4707232541653239
 14
-0.1920697312806983
 24
0.472100788124665
 14
-0.1876046066765991
 24
0.4734451284946248
 14
-0.1831285069230901
 24
0.4747562752752026
 14
-0.1786414320201786
 24
0.476034228466399
 14
-0.1741433819678608
 24
0.4772789880682131
 14
-0.1696343567661369
 24
0.4784905540806459
 14
-0.165114356415005
 24
0.4796689265036969
 14
-0.1605833809144706
 24
0.4808141053373662
 14
-0.1560414302645299
 24
0.4819260905816538
 14
-0.1514885044651866
 24
0.4830048822365598
 14
-0.1469246035164353
 24
0.4840504803020838
 14
-0.1423497274182779
 24
0.4850628847782263
 14
-0.1377638761707161
 24
0.4860420956649869
 14
-0.133167049773748
 24
0.4869881129623657
 14
-0.1285592482273721
 24
0.4879009366703631
 14
-0.1239404715315953
 24
0.4887805667889786
 14
-0.1193107196864087
 24
0.4896270033182124
 14
-0.1146699926918213
 24
0.4904402462580648
 14
-0.1100182905478242
 24
0.4912202956085354
 14
-0.1053556132544227
 24
0.491967151369624
 14
-0.1006819608116185
 24
0.492680813541331
 14
-0.0959973332194064
 24
0.4933612821236562
 14
-0.0913017304777863
 24
0.4940085571165995
 14
-0.0865951525867636
 24
0.4946226385201615
 14
-0.081877599546333
 24
0.4952035263343417
 14
-0.0771490713565015
 24
0.4957512205591401
 14
-0.0724095680172585
 24
0.4962657211945567
 14
-0.0676590895286129
 24
0.4967470282405917
 14
-0.0628976358905629
 24
0.4971951416972449
 14
-0.0581252071031066
 24
0.4976100615645163
 14
-0.0533418031662443
 24
0.4979917878424061
 14
-0.0485474240799775
 24
0.4983403205309143
 14
-0.0437420698443045
 24
0.4986556596300404
 14
-0.0389257404592254
 24
0.4989378051397848
 14
-0.0340984359247418
 24
0.4991867570601476
 14
-0.0292601562408521
 24
0.499402515391129
 14
-0.0244109014075544
 24
0.4995850801327286
 14
-0.0195506714248559
 24
0.499734451284946
 14
-0.0146794662927494
 24
0.4998506288477822
 14
-0.009797286011235
 24
0.4999336128212366
 14
-0.0049041305803179
 24
0.4999834032053092
 14
0.0000000000000036
 24
0.5
 14
0.004904130580325
 24
0.4999834032053092
 14
0.0097972860112421
 24
0.4999336128212366
 14
0.0146794662927547
 24
0.4998506288477822
 14
0.0195506714248612
 24
0.499734451284946
 14
0.0244109014075615
 24
0.4995850801327286
 14
0.0292601562408574
 24
0.499402515391129
 14
0.0340984359247472
 24
0.4991867570601476
 14
0.0389257404592289
 24
0.4989378051397848
 14
0.0437420698443081
 24
0.4986556596300404
 14
0.0485474240799828
 24
0.4983403205309143
 14
0.0533418031662496
 24
0.4979917878424061
 14
0.0581252071031138
 24
0.4976100615645163
 14
0.0628976358905682
 24
0.4971951416972449
 14
0.06765908952862
 24
0.4967470282405917
 14
0.0724095680172656
 24
0.4962657211945567
 14
0.0771490713565051
 24
0.4957512205591401
 14
0.0818775995463383
 24
0.4952035263343417
 14
0.086595152586769
 24
0.4946226385201615
 14
0.0913017304777934
 24
0.4940085571165995
 14
0.09599733321941
 24
0.4933612821236562
 14
0.1006819608116203
 24
0.492680813541331
 14
0.105355613254428
 24
0.491967151369624
 14
0.1100182905478295
 24
0.4912202956085354
 14
0.1146699926918249
 24
0.4904402462580648
 14
0.1193107196864105
 24
0.4896270033182124
 14
0.123940471531597
 24
0.4887805667889786
 14
0.1285592482273739
 24
0.4879009366703631
 14
0.1331670497737498
 24
0.4869881129623657
 14
0.1377638761707196
 24
0.4860420956649869
 14
0.1423497274182814
 24
0.4850628847782263
 14
0.1469246035164371
 24
0.4840504803020838
 14
0.1514885044651901
 24
0.4830048822365598
 14
0.156041430264537
 24
0.4819260905816538
 14
0.1605833809144777
 24
0.4808141053373662
 14
0.1651143564150122
 24
0.4796689265036969
 14
0.1696343567661405
 24
0.4784905540806459
 14
0.1741433819678644
 24
0.4772789880682131
 14
0.1786414320201803
 24
0.476034228466399
 14
0.1831285069230937
 24
0.4747562752752026
 14
0.1876046066766026
 24
0.4734451284946248
 14
0.1920697312807036
 24
0.472100788124665
 14
0.1965238807354002
 24
0.4707232541653239
 14
0.2009670550406888
 24
0.4693125266166007
 14
0.2053992541965766
 24
0.4678686054784957
 14
0.2098204782030528
 24
0.4663914907510092
 14
0.2142307270601265
 24
0.464881182434141
 14
0.2186300007677957
 24
0.463337680527891
 14
0.2230182993260588
 24
0.4617609850322595
 14
0.2273956227349156
 24
0.4601510959472463
 14
0.2317619709943681
 24
0.4585080132728512
 14
0.2361173441044144
 24
0.456831737009074
 14
0.2404617420650546
 24
0.4551222671559154
 14
0.2447951648762885
 24
0.4533796037133753
 14
0.249117612538118
 24
0.4516037466814533
 14
0.2534290850505414
 24
0.4497946960601495
 14
0.2577295824135604
 24
0.447952451849464
 14
0.2620191046271749
 24
0.4460770140493968
 14
0.2662976516913815
 24
0.4441683826599481
 14
0.270565223606182
 24
0.4422265576811173
 14
0.2748218203715798
 24
0.4402515391129052
 14
0.2790674419875696
 24
0.4382433269553112
 14
0.2833020884541551
 24
0.4362019212083355
 14
0.2875257597713343
 24
0.4341273218719781
 14
0.2917384559391092
 24
0.432019528946239
 14
0.2959307720014444
 24
0.4298832913736714
 14
0.3000933030023063
 24
0.4277233580968292
 14
0.3042260489416968
 24
0.4255397291157117
 14
0.3083290098196159
 24
0.4233324044303195
 14
0.3124021856360617
 24
0.4211013840406521
 14
0.3164455763910361
 24
0.41884666794671
 14
0.3204591820845337
 24
0.4165682561484927
 14
0.3244430027165617
 24
0.4142661486460006
 14
0.3283970382871182
 24
0.4119403454392336
 14
0.3323212887962015
 24
0.4095908465281917
 14
0.3362157542438116
 24
0.4072176519128747
 14
0.3400804346299484
 24
0.4048207615932828
 14
0.3439153299546138
 24
0.4024001755694162
 14
0.347720440217806
 24
0.3999558938412746
 14
0.3514957654195268
 24
0.3974879164088578
 14
0.3552413055597743
 24
0.3949962432721663
 14
0.3589570606385468
 24
0.3924808744311998
 14
0.3626430306558497
 24
0.3899418098859586
 14
0.3662992156116811
 24
0.3873790496364422
 14
0.3699256155060375
 24
0.3847925936826508
 14
0.3735222303389243
 24
0.3821824420245845
 14
0.3770890601103378
 24
0.3795485946622434
 14
0.3806261048202781
 24
0.376891051595627
 14
0.3841333644687452
 24
0.374209812824736
 14
0.3876108390557409
 24
0.3715048783495698
 14
0.3910585285812633
 24
0.3687762481701289
 14
0.3944764330453125
 24
0.366023922286413
 14
0.3978645524478903
 24
0.3632479006984222
 14
0.4012228867889966
 24
0.3604481834061561
 14
0.4045514360686298
 24
0.3576247704096158
 14
0.4078502002867879
 24
0.3547776617088001
 14
0.4111191794434763
 24
0.3519068573037096
 14
0.4143583735386915
 24
0.3490123571943442
 14
0.4175677825724353
 24
0.3460941613807038
 14
0.4207474065447041
 24
0.3431522698627882
 14
0.4238972454555032
 24
0.3401866826405979
 14
0.4270172993048273
 24
0.3371973997141327
 14
0.4301075680926818
 24
0.3341844210833926
 14
0.4331680518190595
 24
0.3311477467483774
 14
0.4361987504839693
 24
0.3280873767090871
 14
0.4391996640874023
 24
0.3250033109655219
 14
0.4421707926293656
 24
0.3218955495176821
 14
0.4451121361098558
 24
0.3187640923655668
 14
0.4480236945288727
 24
0.3156089395091772
 14
0.4509054678864164
 24
0.3124300909485125
 14
0.4537574561824904
 24
0.3092275466835728
 14
0.4565796594170877
 24
0.3060013067143581
 14
0.459372077590217
 24
0.3027513710408687
 14
0.4621347107018732
 24
0.2994777396631041
 14
0.4648675587520543
 24
0.296180412581065
 14
0.467570621740764
 24
0.2928593897947502
 14
0.4702438996680023
 24
0.289514671304161
 14
0.4728873925337673
 24
0.286146257109297
 14
0.4755011003380591
 24
0.2827541472101576
 14
0.4780850230808795
 24
0.2793383416067432
 14
0.4806391607622267
 24
0.2758988402990541
 14
0.4831635133821024
 24
0.27243564328709
 14
0.4856580809405067
 24
0.2689487505708512
 14
0.4881228634374359
 24
0.2654381621503372
 14
0.4905578608728938
 24
0.2619038780255483
 14
0.4929630732468802
 24
0.2583458981964846
 14
0.4953385005593933
 24
0.2547642226631459
 14
0.4976841428104333
 24
0.2511588514255323
 14
0.5
 24
0.2475297844836437
 14
0.0
 24
0.0248382525656581
  0
SPLINE
  5
1EF
330
6E
100
AcDbEntity
  8
0-2
  6
Continuous
 62
   251
370
     5
100
AcDbSpline
210
0.0
220
0.0
230
1.0
 70
     8
 71
     2
 72
     9
 73
     6
 74
     0
 42
0.000000001
 43
0.0000000000001
 40
0.0
 40
0.0
 40
0.0
 40
1.0
 40
2.0
 40
3.0
 40
4.0
 40
4.0
 40
4.0
 10
10303.69947164847
 20
-1379.24138962796
 30
0.0
 10
10367.78208680289
 20
-1480.642052458694
 30
0.0
 10
10602.126345946
 20
-1598.971943680455
 30
0.0
 10
10875.59527522841
 20
-1598.971943680455
 30
0.0
 10
11109.93953437152
 20
-1480.642052458694
 30
0.0
 10
11174.02214952593
 20
-1379.24138962796
 30
0.0
  0
LINE
  5
1F0
330
6E
100
AcDbEntity
  8
0-2
  6
Continuous
 62
   251
370
     5
100
AcDbLine
 10
11195.19216060944
 20
1118.722950923227
 30
0.0
 11
11174.02214952593
 21
-1379.24138962796
 31
0.0
  0
LINE
  5
1F1
330
6E
100
AcDbEntity
  8
0-2
  6
Continuous
 62
   251
370
     5
100
AcDbLine
 10
10303.69947164847
 20
-1379.24138962796
 30
0.0
 11
10066.12490282246
 21
91.89175955040628
 31
0.0
  0
WIPEOUT
  5
1F2
330
6E
100
AcDbEntity
  8
0-2
  6
Continuous
 62
   251
370
     5
 92
     3176
310
680C0000040000000C0000000E000000120000000C00000016000000000000C20C00000014000000010000003C0C00000700000082000000D349A60C8739C240FC1AEC9C36C151C00000000000000000D1D0D0FC0FA9C3400039A69612F956400000000000000000ACDF4B903BA8C340DC5C46678245584000000000000000
310
0047C0295861A7C340704E31358C9059400000000000000000A6726A5481A6C340B60D670030DA5A400000000000000000C7F60D859BA5C340B09AE7C86D225C400000000000000000AB4C14EAAFA4C3405EF5B28E45695D40000000000000000050747D83BEA3C340C01DC951B7AE5E400000000000000000B86D4951C7A2
310
C340D4132A12C3F25F400000000000000000E3387853CAA1C340CFEBEA67B49A60400000000000000000D0D5098AC7A0C3408E346645543B614000000000000000007F44FEF4BE9FC34027E4862141DB61400000000000000000F0845594B09EC34099FA4CFC7A7A6240000000000000000023970F689C9DC340E677B8D501
310
1963400000000000000000197B2C70829CC3400D5CC9ADD5B663400000000000000000D130ACAC629BC3400DA77F84F653644000000000000000004CB88E1D3D9AC340E858DB5964F0644000000000000000008811D4C21199C3409E71DC2D1F8C65400000000000000000873C7C9CE097C3402CF182002727664000000000
310
00000000483987AAA996C34094D7CED17BC166400000000000000000CC07F5EC6C95C340D724C0A11D5B6740000000000000000011A8C5632A94C340F4D856700CF4674000000000000000001A1AF90EE292C340ECF3923D488C68400000000000000000E55D8FEE9391C340BA757409D12369400000000000000000727388
310
024090C340665EFBD3A6BA69400000000000000000C25AE44AE68EC340EAAD279DC9506A400000000000000000D213A3C7868DC3404864F96439E66A400000000000000000A69EC478218CC3408281702BF67A6B4000000000000000003EFB485EB68AC34095058DF0FF0E6C400000000000000000952930784589C34081F0
310
4EB456A26C400000000000000000B0297AC6CE87C3404742B676FA346D4000000000000000008DFB26495286C340E8FAC237EBC66D4000000000000000002E9F3600D084C340621A75F728586E4000000000000000009014A9EB4783C340B7A0CCB5B3E86E400000000000000000B35B7E0BBA81C340E68DC9728B786F4000
310
000000000000009974B65F2680C340F7F03517D80370400000000000000000425F51E88C7EC34067CE59F4104B70400000000000000000AD1B4FA5ED7CC340465FD050F09170400000000000000000DAA9AF96487BC34091A3992C76D870400000000000000000CA0973BC9D79C340499BB587A21E71400000000000000000
310
7D3B9916ED77C3406F462462756471400000000000000000F13E22A53676C34001A5E5BBEEA97140000000000000000028140E687A74C34000B7F9940EEF7140000000000000000021BB5C5FB872C3406C7C60EDD43372400000000000000000DC330E8BF070C34045F519C5417872400000000000000000597E22EB226FC3
310
408B21261C55BC72400000000000000000999A997F4F6DC3403E0185F20E00734000000000000000009B887348766BC3405F9436486F43734000000000000000006048B0459769C340EBDA3A1D768673400000000000000000E7D94F77B267C340E6D4917123C9734000000000000000002F3D52DDC765C3404D823B45770B
310
744000000000000000003A72B777D763C34021E33798714D7440000000000000000008797F46E161C34063F7866A128F744000000000000000009751AA49E55FC34011BF28BC59D074400000000000000000EAFB3781E35DC3402C3A1D8D471175400000000000000000007828EDDB5BC340B46864DDDB5175400000000000
310
000000D7C57B8DCE59C340A94AFEAC1692754000000000000000006FE53162BB57C3400AE0EAFBF7D175400000000000000000CBD64A6BA255C340DA282ACA7F1176400000000000000000E899C6A88353C3401625BC17AE5076400000000000000000C92EA51A5F51C340BED4A0E4828F764000000000000000006C95E6C0
310
344FC340D437D830FECD76400000000000000000D1CD8A9B044DC340584E62FC1F0C77400000000000000000F7D791AACE4AC34048183F47E84977400000000000000000E2B3FBED9248C340A5956E115787774000000000000000008D61C8655146C3406FC6F05A6CC4774000000000000000005B9A504D0B44C3408B095F
310
0C070178400000000000000000A717EDDFC141C340DDBD520E063D7840000000000000000076D99D1D753FC34067E3CB60697878400000000000000000C4DF6206253DC340287ACA0331B378400000000000000000912A3C9AD13AC34020824EF75CED78400000000000000000E0B929D97A38C34050FB573BED2679400000
310
000000000000AF8D2BC32036C340B5E5E6CFE15F79400000000000000000FFA54158C333C3405241FBB43A9879400000000000000000CD026C986231C340260E95EAF7CF794000000000000000001DA4AA83FE2EC340314CB47019077A400000000000000000ED89FD19972CC34074FB58479F3D7A4000000000000000003D
310
B4645B2C2AC340ED1B836E89737A4000000000000000000D23E047BE27C3409CAD32E6D7A87A4000000000000000005ED66FDF4C25C34083B067AE8ADD7A4000000000000000002FCE1322D822C340A12422C7A1117B400000000000000000810ACC0F6020C340F50962301D457B400000000000000000538B98A8E41DC340
310
836027EAFC777B400000000000000000A65079EC651BC340452872F440AA7B400000000000000000785A6EDBE318C3403E61424FE9DB7B400000000000000000CAA877755E16C3406E0B98FAF50C7C4000000000000000009C3B95BAD513C340D62673F6663D7C400000000000000000EF12C7AA4911C34075B3D3423C6D7C
310
400000000000000000C42E0D46BA0EC3404CB1B9DF759C7C400000000000000000178F678C270CC340582025CD13CB7C400000000000000000EA33D67D9109C3409D00160B16F97C4000000000000000003E1D591AF806C34016528C997C267D400000000000000000124BF0615B04C340C814887847537D40000000000000
310
000067BD9B54BB01C340B24809A8767F7D4000000000000000003C745BF217FFC240D2ED0F280AAB7D400000000000000000926F2F3B71FCC24029049CF801D67D40000000000000000067AF172FC7F9C240B68BAD195E007E400000000000000000BE3314CE19F7C2407A84448B1E2A7E40000000000000000093FC241869
310
F4C24076EE604D43537E400000000000000000EA094A0DB5F1C240A8C90260CC7B7E400000000000000000C05B83ADFDEEC24012162AC3B9A37E40000000000000000017F2D0F842ECC240B3D3D6760BCB7E400000000000000000EFCC32EF84E9C2408C02097BC1F17E40000000000000000045ECA890C3E6C2409AA2C0CF
310
DB177F4000000000000000001D5033DDFEE3C240E0B3FD745A3D7F40000000000000000076F8D1D436E1C2405C36C06A3D627F4000000000000000004FE584776BDEC240102A08B184867F400000000000000000A7164CC59CDBC240FA8ED54730AA7F400000000000000000808C27BECAD8C2401C65282F40CD7F40000000
310
0000000000D9461762F5D5C24074AC0067B4EF7F400000000000000000B3451BB11CD3C2408332AF77C608804000000000000000000D8933AB40D0C24066C720E4641980400000000000000000E710605061CDC240E514D578B5298040000000000000000041DDA0A07ECAC240FF1ACC35B839804000000000000000001CEE
310
F59B98C7C240B5D9051B6D498040000000000000000077435F42AFC4C24006518228D4588040000000000000000052DDDC93C2C1C240F380415EED6780400000000000000000ADBB6E90D2BEC2407B6943BCB8768040000000000000000089DE1438DFBBC2409F0A8842368580400000000000000000E545CF8AE8B8C2405E
310
640FF1659380400000000000000000C3F19D88EEB5C240B976D9C747A1804000000000000000001FE28031F1B2C240AF41E6C6DBAE80400000000000000000FC167885F0AFC24041C535EE21BC804000000000000000005A908384ECACC2406E01C83D1AC980400000000000000000374EA32EE5A9C24037F69CB5C4D58040
310
00000000000000009650D783DAA6C2409BA3B45521E28040000000000000000073971F84CCA3C2409B090F1E30EE80400000000000000000D1227C2FBBA0C2403628AC0EF1F980400000000000000000B1F2EC85A69DC2406DFF8B276405814000000000000000000F0772878E9AC2403F8FAE688910814000000000000000
310
00
100
AcDbWipeout
 90
        0
 10
9331.055073534058
 20
-71.01895831162619
 30
0.0
 11
735.0698292884008
 21
0.0
 31
0.0
 12
0.0
 22
735.0698292884008
 32
0.0
 13
1.0
 23
1.0
340
0
 70
     4
280
     1
281
    50
282
    50
283
     0
360
0
 71
     2
 91
      131
 14
-0.5000000000000018
 24
0.4999999999999999
 14
0.4999999999999982
 24
0.2783738205936959
 14
0.4977423073560718
 24
0.2713073835892296
 14
0.4954230201479994
 24
0.2642706733272527
 14
0.4930421383757846
 24
0.2572636898077653
 14
0.4905996620394255
 24
0.2502864330307673
 14
0.488095591138924
 24
0.2433389029962588
 14
0.4855299256742747
 24
0.2364210997042397
 14
0.4829026656454847
 24
0.2295330231547102
 14
0.4802138110525505
 24
0.22267467334767
 14
0.477463361895472
 24
0.2158460502831193
 14
0.4746513181742493
 24
0.2090471539610581
 14
0.4717776798888806
 24
0.2022779843814863
 14
0.4688424470393677
 24
0.195538541544404
 14
0.4658456196257124
 24
0.1888288254498111
 14
0.4627871976479128
 24
0.1821488360977077
 14
0.4596671811059689
 24
0.1754985734880938
 14
0.4564855699998809
 24
0.1688780376209693
 14
0.4532423643296486
 24
0.1622872284963342
 14
0.4499375640952703
 24
0.1557261461141886
 14
0.4465711692967513
 24
0.1491947904745325
 14
0.4431431799340864
 24
0.1426931615773658
 14
0.4396535960072807
 24
0.1362212594226885
 14
0.4361024175163291
 24
0.1297790840105008
 14
0.4324896444612332
 24
0.1233666353408024
 14
0.4288152768419931
 24
0.1169839134135936
 14
0.4250793146586069
 24
0.1106309182288742
 14
0.4212817579110784
 24
0.1043076497866442
 14
0.4174226065994091
 24
0.0980141080869037
 14
0.4135018607235903
 24
0.0917502931296527
 14
0.4095195202836308
 24
0.0855162049148911
 14
0.4054755852795253
 24
0.0793118434426189
 14
0.4013700557112792
 24
0.0731372087128362
 14
0.397202931578887
 24
0.066992300725543
 14
0.3929742128823488
 24
0.0608771194807392
 14
0.3886838996216682
 24
0.0547916649784249
 14
0.3843319917968433
 24
0.0487359372186001
 14
0.3799184894078742
 24
0.0427099362012646
 14
0.3754433924547609
 24
0.0367136619264187
 14
0.3709067009375051
 24
0.0307471143940622
 14
0.3663084148561069
 24
0.0248102936041951
 14
0.3616485342105609
 24
0.0189031995568175
 14
0.3569270590008724
 24
0.0130258322519294
 14
0.3521439892270397
 24
0.0071781916895307
 14
0.3472993248890628
 24
0.0013602778696215
 14
0.3423930659869399
 24
-0.0044279092077982
 14
0.3374252125206745
 24
-0.0101863695427286
 14
0.3323957644902649
 24
-0.0159151031351695
 14
0.3273047218957128
 24
-0.0216141099851208
 14
0.3221520847370147
 24
-0.0272833900925828
 14
0.3169378530141707
 24
-0.0329229434575554
 14
0.3116620267271841
 24
-0.0385327700800384
 14
0.3063246058760551
 24
-0.0441128699600321
 14
0.3009255904607802
 24
-0.0496632430975362
 14
0.2954649804813645
 24
-0.0551838894925509
 14
0.2899427759378046
 24
-0.0606748091450761
 14
0.2843589768300987
 24
-0.0661360020551118
 14
0.2787135831582468
 24
-0.0715674682226581
 14
0.2730065949222542
 24
-0.076969207647715
 14
0.2672380121221138
 24
-0.0823412203302825
 14
0.2614078347578328
 24
-0.0876835062703604
 14
0.2555160628294075
 24
-0.0929960654679489
 14
0.249562696336838
 24
-0.0982788979230479
 14
0.2435477352801225
 24
-0.1035320036356576
 14
0.2374711796592663
 24
-0.1087553826057777
 14
0.2313330294742642
 24
-0.1139490348334084
 14
0.2251463768334645
 24
-0.1191019695838787
 14
0.2189243138452106
 24
-0.1242031961225178
 14
0.2126668405095078
 24
-0.1292527144493257
 14
0.2063739568263525
 24
-0.1342505245643024
 14
0.200045662795743
 24
-0.1391966264674478
 14
0.1936819584176845
 24
-0.1440910201587621
 14
0.1872828436921736
 24
-0.1489337056382451
 14
0.1808483186192102
 24
-0.1537246829058969
 14
0.1743783831987926
 24
-0.1584639519617174
 14
0.1678730374309261
 24
-0.1631515128057068
 14
0.1613322813156071
 24
-0.1677873654378649
 14
0.1547561148528356
 24
-0.1723715098581919
 14
0.1481445380426116
 24
-0.1769039460666875
 14
0.141497550884937
 24
-0.181384674063352
 14
0.1348151533798099
 24
-0.1858136938481852
 14
0.1280973455272321
 24
-0.1901910054211871
 14
0.1213441273272018
 24
-0.194516608782358
 14
0.1145554987797208
 24
-0.1987905039316976
 14
0.1077314598847856
 24
-0.2030126908692059
 14
0.1008720106423979
 24
-0.2071831695948829
 14
0.0939771510525595
 24
-0.2113019401087288
 14
0.0870468811152687
 24
-0.2153690024107435
 14
0.0800812008305289
 24
-0.219384356500927
 14
0.0730801101983332
 24
-0.2233480023792792
 14
0.0660436092186849
 24
-0.2272599400458002
 14
0.058971697891586
 24
-0.2311201695004899
 14
0.0518643762170363
 24
-0.2349286907433485
 14
0.044721644195036
 24
-0.2386855037743759
 14
0.0375435018255814
 24
-0.242390608593572
 14
0.0303299491086761
 24
-0.2460440052009369
 14
0.0230809860443184
 24
-0.2496456935964705
 14
0.01579661263251
 24
-0.2531956737801729
 14
0.0084768288732473
 24
-0.2566939457520441
 14
0.0011216347665339
 24
-0.2601405095120841
 14
-0.0062689696876319
 24
-0.2635353650602929
 14
-0.0136949844892484
 24
-0.2668785123966704
 14
-0.0211564096383174
 24
-0.2701699515212169
 14
-0.0286532451348407
 24
-0.2734096824339319
 14
-0.0361854909788129
 24
-0.2765977051348158
 14
-0.0437531471702357
 24
-0.2797340196238684
 14
-0.051356213709111
 24
-0.2828186259010899
 14
-0.0589946905954424
 24
-0.28585152396648
 14
-0.0666685778292226
 24
-0.288832713820039
 14
-0.0743778754104554
 24
-0.2917621954617668
 14
-0.0821225833391388
 24
-0.2946399688916635
 14
-0.0899027016152747
 24
-0.2974660341097288
 14
-0.0977182302388631
 24
-0.3002403911159628
 14
-0.1055691692099039
 24
-0.3029630399103657
 14
-0.1134555185283972
 24
-0.3056339804929374
 14
-0.1213772781943412
 24
-0.3082532128636777
 14
-0.1293344482077377
 24
-0.310820737022587
 14
-0.1373270285685848
 24
-0.3133365529696649
 14
-0.1453550192768844
 24
-0.3158006607049117
 14
-0.1534184203326365
 24
-0.3182130602283272
 14
-0.1615172317358375
 24
-0.3205737515399116
 14
-0.1696514534864928
 24
-0.3228827346396646
 14
-0.1778210855846005
 24
-0.3251400095275865
 14
-0.1860261280301589
 24
-0.3273455762036772
 14
-0.1942665808231698
 24
-0.3294994346679366
 14
-0.2025424439636314
 24
-0.3316015849203647
 14
-0.2108537174515472
 24
-0.3336520269609617
 14
-0.2192004012869155
 24
-0.3356507607897275
 14
-0.2275824954697327
 24
-0.337597786406662
 14
-0.2360000000000042
 24
-0.3394931038117653
 14
-0.5000000000000018
 24
0.4999999999999999
  0
SPLINE
  5
1F3
330
6E
100
AcDbEntity
  8
0-2
  6
Continuous
 62
   251
370
     5
100
AcDbSpline
210
0.0
220
0.0
230
1.0
 70
     8
 71
     2
 72
     7
 73
     4
 74
     0
 42
0.000000001
 43
0.0000000000001
 40
0.0
 40
0.0
 40
0.0
 40
1.0
 40
2.0
 40
2.0
 40
2.0
 10
10066.12490282246
 20
91.89175955040628
 30
0.0
 10
10013.74334783104
 20
258.4597678164482
 30
0.0
 10
9723.52848949431
 20
502.0931400138434
 30
0.0
 10
9525.113508466195
 20
546.067094196078
 30
0.0
  0
WIPEOUT
  5
1F4
330
6E
100
AcDbEntity
  8
0-2
  6
Continuous
 62
   251
370
     5
 92
     1640
310
68060000040000000C0000000E000000120000000C00000016000000000000C20C00000014000000010000003C06000007000000420000006818C9F88646C340000071A3DDAF8C400000000000000000FCAC36EAB430C240106B70B01BAF8A4000000000000000006CB73B113631C24033F6308AB77F8A4000000000000000
310
007EA4998FC031C24089339DD49B508A400000000000000000317450655432C2401323B58FC8218A40000000000000000089266092F132C240D2C478BB3DF38940000000000000000081BBC8169833C240C618E857FBC4894000000000000000001C338AF24734C240EC1E0365019789400000000000000000598DA4250135
310
C24048D7C9E24F698940000000000000000039CA17B0C335C240DA413CD1E63B89400000000000000000BBE9E3918F36C2409E5E5A30C60E89400000000000000000E0EB08CB6437C240972D2400EEE188400000000000000000A6D0865B4338C240C3AE99405EB5884000000000000000000E985D432B39C24024E2BAF116
310
89884000000000000000001B428D821C3AC240B9C78713185D88400000000000000000C8CE1519173BC240835F00A6613188400000000000000000183EF7061B3CC24081A924A9F305884000000000000000000B90314C283DC240B3A5F41CCEDA874000000000000000009EC4C4E83E3EC2401A547001F1AF874000000000
310
00000000D5DBB0DC5E3FC240B4B497565C8587400000000000000000ADD5F5278840C24083C76A1C105B8740000000000000000029B293CABA41C240878CE9520C318740000000000000000048718AC4F642C240BF0314FA5007874000000000000000000813DA153C44C2402A2DEA11DEDD864000000000000000006A9782
310
BE8A45C240CA086C9AB3B4864000000000000000006EFE83BEE246C2409F969993D18B864000000000000000001648DE154448C240A8D672FD3763864000000000000000005E7491C4AE49C240E4C8F7D7E63A864000000000000000004A839DCA224BC240576D2823DE1286400000000000000000D8740228A04CC240FBC3
310
04DF1DEB854000000000000000000849C0DC264EC240D4CC8C0BA6C385400000000000000000DAFFD6E8B64FC240E387C0A8769C854000000000000000004F99464C5051C24025F59FB68F758540000000000000000068150F07F352C2409C142B35F14E85400000000000000000217430199F54C24048E661249B28854000
310
000000000000007DB5AA825456C240276A44848D02854000000000000000007CD97D431358C2403BA0D254C8DC844000000000000000001BE0A95BDB59C24082880C964BB7844000000000000000005EC92ECBAC5BC240FD22F24717928440000000000000000042950C92875DC240AC6F836A2B6D84400000000000000000
310
CB4343B06B5FC240926EC0FD874884400000000000000000F4D4D2255961C240AA1FA9012D2484400000000000000000C048BBF24F63C240F7823D761A00844000000000000000002F9FFC165065C24079987D5B50DC8340000000000000000040D896925967C2402E6069B1CEB883400000000000000000F3F389656C69C2
310
4018DA007895958340000000000000000047F2D58F886BC240370644AFA472834000000000000000003ED37A11AE6DC24089E43257FC4F83400000000000000000D89678EADC6FC2401175CD6F9C2D83400000000000000000153DCF1A1572C240CBB713F9840B83400000000000000000F2C57EA25674C240BAAC05F3B5E9
310
8240000000000000000072318781A176C240DF53A35D2FC882400000000000000000967FE8B7F578C24037ADEC38F1A6824000000000000000005CB0A245537BC240C2B8E184FB8582400000000000000000C3C3B52ABA7DC240827682414E6582400000000000000000CDB921672A80C24077E6CE6EE94482400000000000
310
0000007992E6FAA382C240A008C70CCD2482400000000000000000C94D04E62685C240FDDC6A1BF90482400000000000000000BAEB7A28B387C2408E63BA9A6DE5814000000000000000004D6C4AC2488AC240549CB58A2AC68140000000000000000082CF72B3E78CC2404F875CEB2FA7814000000000000000005A15F4FB
310
8F8FC2407C24AFBC7D8881400000000000000000D53DCE9B4192C240DE73ADFE136A81400000000000000000F0480193FC94C240767557B1F24B81400000000000000000AF368DE1C097C2404029ADD4192E81400000000000000000100772878E9AC240408FAE68891081400000000000000000
100
AcDbWipeout
 90
        0
 10
9313.413397631135
 20
546.067094196078
 30
0.0
 11
555.6410697006722
 21
0.0
 31
0.0
 12
0.0
 22
555.6410697006722
 32
0.0
 13
1.0
 23
1.0
340
0
 70
     4
280
     1
281
    50
282
    50
283
     0
360
0
 71
     2
 91
       67
 14
0.5
 24
-0.1693460004680156
 14
-0.5
 24
-0.0539932929983702
 14
-0.498184073601692
 24
-0.043331912117675
 14
-0.4962368067945704
 24
-0.0327341895124587
 14
-0.494158199578635
 24
-0.0222001251827217
 14
-0.4919482519538789
 24
-0.011729719128464
 14
-0.4896069639203127
 24
-0.0013229713496856
 14
-0.4871343354779292
 24
0.0090201181536138
 14
-0.484530366626732
 24
0.0192995493814339
 14
-0.4817950573667176
 24
0.0295153223337743
 14
-0.4789284076978895
 24
0.0396674370106358
 14
-0.4759304176202441
 24
0.0497558934120181
 14
-0.4728010871337851
 24
0.0597806915379213
 14
-0.4695404162385124
 24
0.0697418313883451
 14
-0.4661484049344189
 24
0.0796393129632897
 14
-0.4626250532215153
 24
0.0894731362627552
 14
-0.4589703610997944
 24
0.0992433012867413
 14
-0.4551843285692563
 24
0.1089498080352482
 14
-0.451266955629908
 24
0.1185926565082758
 14
-0.4472182422817426
 24
0.1281718467058244
 14
-0.4430381885247634
 24
0.1376873786278936
 14
-0.4387267943589634
 24
0.1471392522744834
 14
-0.4342840597843498
 24
0.1565274676455941
 14
-0.4297099848009225
 24
0.1658520247412256
 14
-0.4250045694086779
 24
0.175112923561378
 14
-0.4201678136076232
 24
0.1843101641060509
 14
-0.4151997173977477
 24
0.1934437463752448
 14
-0.4101002807790621
 24
0.2025136703689594
 14
-0.4048695037515557
 24
0.2115199360871944
 14
-0.3995073863152356
 24
0.2204625435299508
 14
-0.3940139284701019
 24
0.2293414926972277
 14
-0.3883891302161544
 24
0.2381567835890253
 14
-0.3826329915533897
 24
0.2469084162053437
 14
-0.3767455124818042
 24
0.2555963905461827
 14
-0.3707266930014086
 24
0.2642207066115425
 14
-0.3645765331121957
 24
0.2727813644014232
 14
-0.3582950328141692
 24
0.2812783639158245
 14
-0.351882192107329
 24
0.2897117051547469
 14
-0.3453380109916715
 24
0.2980813881181901
 14
-0.3386624894672039
 24
0.3063874128061539
 14
-0.331855627533912
 24
0.3146297792186383
 14
-0.3249174251918099
 24
0.3228084873556436
 14
-0.3178478824408906
 24
0.3309235372171697
 14
-0.3106469992811576
 24
0.3389749288032164
 14
-0.3033147757126073
 24
0.346962662113784
 14
-0.2958512117352434
 24
0.3548867371488724
 14
-0.2882563073490658
 24
0.3627471539084814
 14
-0.2805300625540745
 24
0.3705439123926113
 14
-0.2726724773502625
 24
0.3782770126012618
 14
-0.2646835517376367
 24
0.3859464545344333
 14
-0.2565632857162008
 24
0.3935522381921255
 14
-0.2483116792859477
 24
0.4010943635743383
 14
-0.2399287324468737
 24
0.4085728306810719
 14
-0.2314144451989861
 24
0.4159876395123265
 14
-0.2227688175422848
 24
0.4233387900681018
 14
-0.2139918494767699
 24
0.4306262823483977
 14
-0.2050835410024376
 24
0.4378501163532145
 14
-0.1960438921192882
 24
0.4450102920825521
 14
-0.186872902827325
 24
0.4521068095364105
 14
-0.1775705731265482
 24
0.4591396687147895
 14
-0.1681369030169542
 24
0.4661088696176892
 14
-0.1585718924985464
 24
0.4730144122451099
 14
-0.1488755415713214
 24
0.4798562965970514
 14
-0.1390478502352863
 24
0.4866345226735135
 14
-0.1290888184904304
 24
0.4933490904744964
 14
-0.1189984463367608
 24
0.4999999999999999
 14
0.5
 24
-0.1693460004680156
  0
SPLINE
  5
1F5
330
6E
100
AcDbEntity
  8
0-2
  6
Continuous
 62
   251
370
     5
100
AcDbSpline
210
0.0
220
0.0
230
1.0
 70
     8
 71
     2
 72
     6
 73
     3
 74
     0
 42
0.000000001
 43
0.0000000000001
 40
0.0
 40
0.0
 40
0.0
 40
1.0
 40
1.0
 40
1.0
 10
9313.413397631135
 20
853.8885201246903
 30
0.0
 10
9344.53385279364
 20
663.7577472230205
 30
0.0
 10
9525.113508466195
 20
546.067094196078
 30
0.0
  0
LINE
  5
1F6
330
6E
100
AcDbEntity
  8
0-2
  6
Continuous
 62
   251
370
     5
100
AcDbLine
 10
11195.19216060944
 20
1118.722950923227
 30
0.0
 11
9313.413397631135
 21
1118.722950923227
 31
0.0
  0
LINE
  5
1F7
330
6E
100
AcDbEntity
  8
0-2
  6
Continuous
 62
   251
370
     5
100
AcDbLine
 10
9313.413397631135
 20
1118.722950923227
 30
0.0
 11
9313.413397631135
 21
853.8885201246903
 31
0.0
  0
ENDBLK
  5
70
330
6E
100
AcDbEntity
  8
0
100
AcDbBlockEnd
  0
BLOCK
  5
72
330
71
100
AcDbEntity
  8
0
100
AcDbBlockBegin
  2
グループ-12
 70
     0
 10
0.0
 20
0.0
 30
0.0
  3
グループ-12
  1

  0
INSERT
  5
1F8
330
71
100
AcDbEntity
  8
0-2
 62
   251
100
AcDbBlockReference
  2
グループ-10
 10
0.0
 20
0.0
 30
0.0
  0
INSERT
  5
1F9
330
71
100
AcDbEntity
  8
0-2
 62
   251
100
AcDbBlockReference
  2
グループ-11
 10
0.0
 20
0.0
 30
0.0
  0
ENDBLK
  5
73
330
71
100
AcDbEntity
  8
0
100
AcDbBlockEnd
  0
BLOCK
  5
94
330
93
100
AcDbEntity
  8
0
100
AcDbBlockBegin
  2
VW_SLASH
 70
     0
 10
0.0
 20
0.0
 30
0.0
  3
VW_SLASH
  1

  0
INSERT
  5
96
330
93
100
AcDbEntity
  8
0-2
  6
ByBlock
 62
     0
370
    -2
100
AcDbBlockReference
  2

 10
0.0
 20
0.0
 30
0.0
  0
LINE
  5
97
330
93
100
AcDbEntity
  8
0-2
  6
ByBlock
 62
     0
370
    -2
100
AcDbLine
 10
0.0
 20
0.0
 30
0.0
 11
-1.0
 21
0.0
 31
0.0
  0
POLYLINE
  5
98
330
93
100
AcDbEntity
  8
0-2
  6
Continuous
 62
     0
370
    20
100
AcDb2dPolyline
 66
     1
 10
0.0
 20
0.0
 30
0.0
 70
     4
 75
     5
  0
VERTEX
  5
99
330
98
100
AcDbEntity
  8
0-2
  6
Continuous
 62
     0
370
    20
100
AcDbVertex
100
AcDb2dVertex
 10
0.3288668013086848
 20
0.3288668013086848
 30
0.0
  0
VERTEX
  5
9A
330
98
100
AcDbEntity
  8
0-2
  6
Continuous
 62
     0
370
    20
100
AcDbVertex
100
AcDb2dVertex
 10
-0.3288668013086848
 20
-0.3288668013086848
 30
0.0
  0
SEQEND
  5
9B
330
98
100
AcDbEntity
  8
0-2
  6
Continuous
 62
     0
370
    20
  0
ENDBLK
  5
95
330
93
100
AcDbEntity
  8
0
100
AcDbBlockEnd
  0
BLOCK
  5
9D
330
9C
100
AcDbEntity
  8
0
100
AcDbBlockBegin
  2
VW_FILLEDARROW
 70
     0
 10
0.0
 20
0.0
 30
0.0
  3
VW_FILLEDARROW
  1

  0
INSERT
  5
9F
330
9C
100
AcDbEntity
  8
0-2
  6
ByBlock
 62
     0
370
    -2
100
AcDbBlockReference
  2

 10
0.0
 20
0.0
 30
0.0
  0
POLYLINE
  5
A0
102
{ACAD_REACTORS
330
A5
102
}
330
9C
100
AcDbEntity
  8
0-2
  6
Continuous
 62
     0
370
     5
100
AcDb2dPolyline
 66
     1
 10
0.0
 20
0.0
 30
0.0
 70
     5
 75
     5
  0
VERTEX
  5
A1
330
A0
100
AcDbEntity
  8
0-2
  6
Continuous
 62
     0
370
     5
100
AcDbVertex
100
AcDb2dVertex
 10
-0.93017578125
 20
0.2492398494049262
 30
0.0
  0
VERTEX
  5
A2
330
A0
100
AcDbEntity
  8
0-2
  6
Continuous
 62
     0
370
     5
100
AcDbVertex
100
AcDb2dVertex
 10
0.0
 20
0.0
 30
0.0
  0
VERTEX
  5
A3
330
A0
100
AcDbEntity
  8
0-2
  6
Continuous
 62
     0
370
     5
100
AcDbVertex
100
AcDb2dVertex
 10
-0.9301757812499999
 20
-0.2492398494049264
 30
0.0
  0
SEQEND
  5
A4
330
A0
100
AcDbEntity
  8
0-2
  6
Continuous
 62
     0
370
     5
  0
HATCH
  5
A5
330
9C
100
AcDbEntity
  8
0-2
  6
Continuous
 62
     0
370
     0
100
AcDbHatch
 10
0.0
 20
0.0
 30
0.0
210
0.0
220
0.0
230
1.0
  2
SOLID
 70
     1
 71
     1
 91
        1
 92
        1
 93
        3
 72
     1
 10
-0.93017578125
 20
0.2492398494049262
 11
0.0
 21
0.0
 72
     1
 10
0.0
 20
0.0
 11
-0.9301757812499999
 21
-0.2492398494049264
 72
     1
 10
-0.9301757812499999
 20
-0.2492398494049264
 11
-0.93017578125
 21
0.2492398494049261
 97
        1
330
A0
 75
     0
 76
     1
 98
        1
 10
0.0
 20
0.0
  0
ENDBLK
  5
9E
330
9C
100
AcDbEntity
  8
0
100
AcDbBlockEnd
  0
ENDSEC
  0
SECTION
  2
ENTITIES
  0
LINE
  5
1FA
330
1F
100
AcDbEntity
  8
0-1
  6
Continuous
 62
     7
370
     5
100
AcDbLine
 10
11530.16762762494
 20
5562.965332408894
 30
0.0
 11
13350.90647020285
 21
5562.965332408894
 31
0.0
  0
LINE
  5
1FB
330
1F
100
AcDbEntity
  8
0-1
  6
Continuous
 62
     7
370
     5
100
AcDbLine
 10
11530.16762762494
 20
5898.018632957239
 30
0.0
 11
13350.90647020285
 21
5898.018632957239
 31
0.0
  0
LINE
  5
1FC
330
1F
100
AcDbEntity
  8
0-1
  6
Continuous
 62
     7
370
     5
100
AcDbLine
 10
11530.16762762494
 20
6233.071933505584
 30
0.0
 11
13350.90647020285
 21
6233.071933505584
 31
0.0
  0
LINE
  5
1FD
330
1F
100
AcDbEntity
  8
0-1
  6
Continuous
 62
     7
370
     5
100
AcDbLine
 10
11530.16762762494
 20
5227.912031860549
 30
0.0
 11
13350.90647020285
 21
5227.912031860549
 31
0.0
  0
LINE
  5
1FE
330
1F
100
AcDbEntity
  8
0-1
  6
Continuous
 62
     7
370
     5
100
AcDbLine
 10
-11932.15699542779
 20
7786.083373965226
 30
0.0
 11
-12421.37519640568
 21
7786.083373965226
 31
0.0
  0
LINE
  5
1FF
330
1F
100
AcDbEntity
  8
0-1
  6
Continuous
 62
     7
370
     5
100
AcDbLine
 10
-11932.15699542779
 20
7986.084025158078
 30
0.0
 11
-13321.19007251644
 21
7986.084025158078
 31
0.0
  0
LINE
  5
200
330
1F
100
AcDbEntity
  8
0-1
  6
Continuous
 62
     7
370
     5
100
AcDbLine
 10
-13121.18942132359
 20
2700.858720505137
 30
0.0
 11
-12621.1927421377
 21
2700.858720505137
 31
0.0
  0
LINE
  5
201
330
1F
100
AcDbEntity
  8
0-1
  6
Continuous
 62
     7
370
     5
100
AcDbLine
 10
-13321.19007251644
 20
2418.572985692779
 30
0.0
 11
-13321.19007251644
 21
7986.084025158078
 31
0.0
  0
LINE
  5
202
330
1F
100
AcDbEntity
  8
0-1
  6
Continuous
 62
     7
370
     5
100
AcDbLine
 10
-13121.18942132359
 20
7786.083373965226
 30
0.0
 11
-13121.18942132359
 21
2700.858720505137
 31
0.0
  0
LINE
  5
203
330
1F
100
AcDbEntity
  8
0-1
  6
Continuous
 62
     7
370
     5
100
AcDbLine
 10
-13121.18942132359
 20
7786.083373965226
 30
0.0
 11
-12621.1927421377
 21
7786.083373965226
 31
0.0
  0
LINE
  5
204
330
1F
100
AcDbEntity
  8
0-1
  6
Continuous
 62
     7
370
     5
100
AcDbLine
 10
-12621.1927421377
 20
7786.083373965226
 30
0.0
 11
-12621.1927421377
 21
2700.858720505137
 31
0.0
  0
LINE
  5
205
330
1F
100
AcDbEntity
  8
0-1
  6
Continuous
 62
     7
370
     5
100
AcDbLine
 10
-12621.1927421377
 20
1800.850841341067
 30
0.0
 11
-12621.1927421377
 21
-558.3393015959336
 31
0.0
  0
LINE
  5
206
330
1F
100
AcDbEntity
  8
0-1
  6
Continuous
 62
     7
370
     5
100
AcDbLine
 10
-12421.37519640568
 20
7786.083373965226
 30
0.0
 11
-12421.37519640568
 21
-3657.968337774711
 31
0.0
  0
LINE
  5
207
330
1F
100
AcDbEntity
  8
0-1
  6
Continuous
 62
     7
370
     5
100
AcDbLine
 10
-12621.1927421377
 20
1800.850841341067
 30
0.0
 11
-13321.19007251644
 21
1800.850841341067
 31
0.0
  0
LINE
  5
208
330
1F
100
AcDbEntity
  8
0-1
  6
Continuous
 62
     7
370
     5
100
AcDbLine
 10
-13321.19007251644
 20
2500.858069312286
 30
0.0
 11
-13321.19007251644
 21
1800.850841341067
 31
0.0
  0
LINE
  5
209
330
1F
100
AcDbEntity
  8
0-1
  6
Continuous
 62
     7
370
     5
100
AcDbLine
 10
11530.16762762494
 20
6568.125234053932
 30
0.0
 11
13350.90647020285
 21
6568.125234053932
 31
0.0
  0
LINE
  5
20A
330
1F
100
AcDbEntity
  8
0-1
  6
Continuous
 62
     7
370
     5
100
AcDbLine
 10
13350.90647020285
 20
6903.178534602277
 30
0.0
 11
11530.16762762494
 21
6903.178534602277
 31
0.0
  0
LINE
  5
20B
330
1F
100
AcDbEntity
  8
0-1
  6
Continuous
 62
     7
370
     5
100
AcDbLine
 10
-11932.15699542779
 20
8579.415001406789
 30
0.0
 11
-11932.15699542779
 21
7786.083373965226
 31
0.0
  0
ARC
  5
20C
330
1F
100
AcDbEntity
  8
0-1
  6
Continuous
 62
     7
370
     5
100
AcDbCircle
 10
-10343.80125223098
 20
7784.430476021484
 30
0.0
 40
794.9999903735569
100
AcDbArc
 50
89.63941955566388
 51
174.7590332031252
  0
ARC
  5
20D
330
1F
100
AcDbEntity
  8
0-1
  6
Continuous
 62
     7
370
     5
100
AcDbCircle
 10
-11927.15376243038
 20
7784.430476021484
 30
0.0
 40
794.9999903735596
100
AcDbArc
 50
5.240921020507886
 51
90.36058044433564
  0
LINE
  5
20E
330
1F
100
AcDbEntity
  8
0-1
  6
Continuous
 62
     7
370
     5
100
AcDbLine
 10
7573.355120534085
 20
8686.091253129289
 30
0.0
 11
7573.355120534085
 21
7986.084025158078
 31
0.0
  0
LINE
  5
20F
330
1F
100
AcDbEntity
  8
0-1
  6
Continuous
 62
     7
370
     5
100
AcDbLine
 10
8473.353102105677
 20
8686.091253129289
 30
0.0
 11
8473.353102105677
 21
7986.084025158078
 31
0.0
  0
LINE
  5
210
330
1F
100
AcDbEntity
  8
0-1
  6
Continuous
 62
     7
370
     5
100
AcDbLine
 10
4275.652989297412
 20
7986.084025158078
 30
0.0
 11
7573.355120534085
 21
7986.084025158078
 31
0.0
  0
LINE
  5
211
330
1F
100
AcDbEntity
  8
0-1
  6
Continuous
 62
     7
370
     5
100
AcDbLine
 10
-2326.182233888186
 20
7986.084025158078
 30
0.0
 11
3375.655007725817
 21
7986.084025158078
 31
0.0
  0
LINE
  5
212
330
1F
100
AcDbEntity
  8
0-1
  6
Continuous
 62
     7
370
     5
100
AcDbLine
 10
1983.455558192488
 20
8688.060874032311
 30
0.0
 11
8459.343059953775
 21
8688.060874032311
 31
0.0
  0
LINE
  5
213
330
1F
100
AcDbEntity
  8
0-1
  6
Continuous
 62
     7
370
     5
100
AcDbLine
 10
8641.958589959897
 20
9031.725080036082
 30
0.0
 11
8636.95783136064
 21
9031.725080036082
 31
0.0
  0
LINE
  5
214
330
1F
100
AcDbEntity
  8
0-1
  6
Continuous
 62
     7
370
     5
100
AcDbLine
 10
9886.959426917841
 20
7786.726717476264
 30
0.0
 11
9886.959426917841
 21
7781.718535682649
 31
0.0
  0
LINE
  5
215
330
1F
100
AcDbEntity
  8
0-1
  6
Continuous
 62
     7
370
     5
100
AcDbLine
 10
11139.76698994241
 20
9031.725080036082
 30
0.0
 11
11144.76774854167
 21
9031.725080036082
 31
0.0
  0
LINE
  5
216
330
1F
100
AcDbEntity
  8
0-1
  6
Continuous
 62
     7
370
     5
100
AcDbLine
 10
9894.76615298447
 20
7786.726717476264
 30
0.0
 11
9894.76615298447
 21
7781.718535682649
 31
0.0
  0
LINE
  5
217
330
1F
100
AcDbEntity
  8
0-1
  6
Continuous
 62
     7
370
     5
100
AcDbLine
 10
8636.95783136064
 20
9031.725080036082
 30
0.0
 11
8636.95783136064
 21
7786.083373965226
 31
0.0
  0
LINE
  5
218
330
1F
100
AcDbEntity
  8
0-1
  6
Continuous
 62
     7
370
     5
100
AcDbLine
 10
8473.353102105677
 20
7986.084025158078
 30
0.0
 11
8636.95783136064
 21
7986.084025158078
 31
0.0
  0
LINE
  5
219
330
1F
100
AcDbEntity
  8
0-1
  6
Continuous
 62
     7
370
     5
100
AcDbLine
 10
11144.76774854167
 20
9031.725080036082
 30
0.0
 11
11144.76774854167
 21
7786.083373965226
 31
0.0
  0
LINE
  5
21A
330
1F
100
AcDbEntity
  8
0-1
  6
Continuous
 62
     7
370
     5
100
AcDbLine
 10
11330.16697643209
 20
7786.083373965226
 30
0.0
 11
11144.76774854167
 21
7786.083373965226
 31
0.0
  0
LINE
  5
21B
330
1F
100
AcDbEntity
  8
0-1
  6
Continuous
 62
     7
370
     5
100
AcDbLine
 10
11530.16762762494
 20
7986.084025158078
 30
0.0
 11
11144.76774854167
 21
7986.084025158078
 31
0.0
  0
LINE
  5
21C
330
1F
100
AcDbEntity
  8
0-1
  6
Continuous
 62
     7
370
     5
100
AcDbLine
 10
8473.353102105677
 20
1784.084319684182
 30
0.0
 11
7773.355771726937
 21
1784.084319684182
 31
0.0
  0
LINE
  5
21D
330
1F
100
AcDbEntity
  8
0-1
  6
Continuous
 62
     7
370
     5
100
AcDbLine
 10
11530.16762762494
 20
2469.740038563024
 30
0.0
 11
11642.34199196869
 21
2469.740038563024
 31
0.0
  0
LINE
  5
21E
330
1F
100
AcDbEntity
  8
0-1
  6
Continuous
 62
     7
370
     5
100
AcDbLine
 10
11530.16762762494
 20
2669.740689755876
 30
0.0
 11
11642.34199196869
 21
2669.740689755876
 31
0.0
  0
LINE
  5
21F
330
1F
100
AcDbEntity
  8
0-1
  6
Continuous
 62
     7
370
     5
100
AcDbLine
 10
11530.16762762494
 20
7986.084025158078
 30
0.0
 11
11530.16762762494
 21
2669.740689755876
 31
0.0
  0
LINE
  5
220
330
1F
100
AcDbEntity
  8
0-1
  6
Continuous
 62
     7
370
     5
100
AcDbLine
 10
8473.353102105677
 20
-3307.167967594661
 30
0.0
 11
7773.355771726937
 21
-3307.167967594661
 31
0.0
  0
LINE
  5
221
330
1F
100
AcDbEntity
  8
0-1
  6
Continuous
 62
     7
370
     5
100
AcDbLine
 10
8473.353102105677
 20
-3307.167967594661
 30
0.0
 11
8473.353102105677
 21
-4007.175195565879
 31
0.0
  0
LINE
  5
222
330
1F
100
AcDbEntity
  8
0-1
  6
Continuous
 62
     7
370
     5
100
AcDbLine
 10
7773.355771726937
 20
-3307.167967594661
 30
0.0
 11
7773.355771726937
 21
-2069.968907907125
 31
0.0
  0
LINE
  5
223
330
1F
100
AcDbEntity
  8
0-1
  6
Continuous
 62
     7
370
     5
100
AcDbLine
 10
7773.355771726937
 20
-1869.968256714274
 30
0.0
 11
7773.355771726937
 21
1784.084319684182
 31
0.0
  0
LINE
  5
224
330
1F
100
AcDbEntity
  8
0-1
  6
Continuous
 62
     7
370
     5
100
AcDbLine
 10
7773.355771726937
 20
-2069.968907907125
 30
0.0
 11
11330.16697643209
 21
-2069.968907907125
 31
0.0
  0
LINE
  5
225
330
1F
100
AcDbEntity
  8
0-1
  6
Continuous
 62
     7
370
     5
100
AcDbLine
 10
7773.355771726937
 20
-1869.968256714274
 30
0.0
 11
11330.16697643209
 21
-1869.968256714274
 31
0.0
  0
LINE
  5
226
330
1F
100
AcDbEntity
  8
0-1
  6
Continuous
 62
     7
370
     5
100
AcDbLine
 10
8473.353102105677
 20
-4007.175195565879
 30
0.0
 11
11330.16697643209
 21
-4007.175195565879
 31
0.0
  0
LINE
  5
227
330
1F
100
AcDbEntity
  8
0-1
  6
Continuous
 62
     7
370
     5
100
AcDbLine
 10
7773.355771726937
 20
-4207.175846758729
 30
0.0
 11
10390.16540046456
 21
-4207.175846758729
 31
0.0
  0
LINE
  5
228
330
1F
100
AcDbEntity
  8
0-1
  6
Continuous
 62
     7
370
     5
100
AcDbLine
 10
10590.16605165741
 20
-4207.175846758729
 30
0.0
 11
11530.16762762494
 21
-4207.175846758729
 31
0.0
  0
LINE
  5
229
330
1F
100
AcDbEntity
  8
0-1
  6
Continuous
 62
     7
370
     5
100
AcDbLine
 10
7773.355771726937
 20
-4207.175846758729
 30
0.0
 11
7773.355771726937
 21
-4328.055143686442
 31
0.0
  0
LINE
  5
22A
330
1F
100
AcDbEntity
  8
0-1
  6
Continuous
 62
     7
370
     5
100
AcDbLine
 10
10390.16540046456
 20
-4207.175846758729
 30
0.0
 11
10390.16540046456
 21
-4328.055143686442
 31
0.0
  0
LINE
  5
22B
330
1F
100
AcDbEntity
  8
0-1
  6
Continuous
 62
     7
370
     5
100
AcDbLine
 10
10590.16605165741
 20
-4207.175846758729
 30
0.0
 11
10590.16605165741
 21
-4328.055143686442
 31
0.0
  0
LINE
  5
22C
330
1F
100
AcDbEntity
  8
0-1
  6
Continuous
 62
     7
370
     5
100
AcDbLine
 10
11330.16697643209
 20
-4007.175195565879
 30
0.0
 11
11330.16697643209
 21
-3621.545197457507
 31
0.0
  0
LINE
  5
22D
330
1F
100
AcDbEntity
  8
0-1
  6
Continuous
 62
     7
370
     5
100
AcDbLine
 10
11530.16762762494
 20
-4207.175846758729
 30
0.0
 11
11530.16762762494
 21
-3621.545197457507
 31
0.0
  0
LINE
  5
22E
330
1F
100
AcDbEntity
  8
0-1
  6
Continuous
 62
     7
370
     5
100
AcDbLine
 10
7573.355120534085
 20
-4328.055143686442
 30
0.0
 11
7573.355120534085
 21
2693.372981167377
 31
0.0
  0
LINE
  5
22F
330
1F
100
AcDbEntity
  8
0-1
  6
Continuous
 62
     7
370
     5
100
AcDbLine
 10
-6936.688659349919
 20
1786.766567245584
 30
0.0
 11
-8924.31328308908
 21
1786.766567245584
 31
0.0
  0
LINE
  5
230
330
1F
100
AcDbEntity
  8
0-1
  6
Continuous
 62
     7
370
     5
100
AcDbLine
 10
-8924.31328308908
 20
1786.766567245584
 30
0.0
 11
-9628.457704715891
 21
1786.766567245584
 31
0.0
  0
LINE
  5
231
330
1F
100
AcDbEntity
  8
0-1
  6
Continuous
 62
     7
370
     5
100
AcDbLine
 10
-9628.457704715891
 20
2693.287062259849
 30
0.0
 11
-9628.457704715891
 21
5742.289912916247
 31
0.0
  0
LINE
  5
232
330
1F
100
AcDbEntity
  8
0-1
  6
Continuous
 62
     7
370
     5
100
AcDbLine
 10
-9628.457704715891
 20
5742.289912916247
 30
0.0
 11
-8924.31328308908
 21
5742.289912916247
 31
0.0
  0
LINE
  5
233
330
1F
100
AcDbEntity
  8
0-1
  6
Continuous
 62
     7
370
     5
100
AcDbLine
 10
-9828.458355908742
 20
5942.290564109098
 30
0.0
 11
-9124.313934281932
 21
5942.290564109098
 31
0.0
  0
LINE
  5
234
330
1F
100
AcDbEntity
  8
0-1
  6
Continuous
 62
     7
370
     5
100
AcDbLine
 10
-3226.18021545978
 20
7986.084025158078
 30
0.0
 11
-8928.024880268144
 21
7986.084025158078
 31
0.0
  0
LINE
  5
235
330
1F
100
AcDbEntity
  8
0-1
  6
Continuous
 62
     7
370
     5
100
AcDbLine
 10
-8928.024880268144
 20
8688.060874032311
 30
0.0
 11
-8928.024880268144
 21
7986.084025158078
 31
0.0
  0
LINE
  5
236
330
1F
100
AcDbEntity
  8
0-1
  6
Continuous
 62
     7
370
     5
100
AcDbLine
 10
8636.95783136064
 20
7786.083373965226
 30
0.0
 11
-8924.31328308908
 21
7786.083373965226
 31
0.0
  0
LINE
  5
237
330
1F
100
AcDbEntity
  8
0-1
  6
Continuous
 62
     7
370
     5
100
AcDbLine
 10
-9124.313934281932
 20
5942.290564109098
 30
0.0
 11
-9124.313934281932
 21
6059.319697563064
 31
0.0
  0
LINE
  5
238
330
1F
100
AcDbEntity
  8
0-1
  6
Continuous
 62
     7
370
     5
100
AcDbLine
 10
-8924.31328308908
 20
2693.287062259849
 30
0.0
 11
-8924.31328308908
 21
6059.319697563064
 31
0.0
  0
LINE
  5
239
330
1F
100
AcDbEntity
  8
0-1
  6
Continuous
 62
     7
370
     5
100
AcDbLine
 10
-8924.31328308908
 20
7786.083373965226
 30
0.0
 11
-8924.31328308908
 21
7669.351168285586
 31
0.0
  0
LINE
  5
23A
330
1F
100
AcDbEntity
  8
0-1
  6
Continuous
 62
     7
370
     5
100
AcDbLine
 10
-9628.457704715891
 20
-3307.959774992861
 30
0.0
 11
-8928.034777860621
 21
-3307.959774992861
 31
0.0
  0
LINE
  5
23B
330
1F
100
AcDbEntity
  8
0-1
  6
Continuous
 62
     7
370
     5
100
AcDbLine
 10
-9628.457704715891
 20
-3307.959774992861
 30
0.0
 11
-9628.457704715891
 21
1786.766567245584
 31
0.0
  0
LINE
  5
23C
330
1F
100
AcDbEntity
  8
0-1
  6
Continuous
 62
     7
370
     5
100
AcDbLine
 10
-9828.458355908742
 20
-3657.968337774711
 30
0.0
 11
-9828.458355908742
 21
5942.290564109098
 31
0.0
  0
LINE
  5
23D
330
1F
100
AcDbEntity
  8
0-1
  6
Continuous
 62
     7
370
     5
100
AcDbLine
 10
-9828.458355908742
 20
-3657.968337774711
 30
0.0
 11
-9828.458355908742
 21
-4207.967654156929
 31
0.0
  0
LINE
  5
23E
330
1F
100
AcDbEntity
  8
0-1
  6
Continuous
 62
     7
370
     5
100
AcDbLine
 10
-9828.458355908742
 20
-4207.967654156929
 30
0.0
 11
-9124.313934281932
 21
-4207.967654156929
 31
0.0
  0
LINE
  5
23F
330
1F
100
AcDbEntity
  8
0-1
  6
Continuous
 62
     7
370
     5
100
AcDbLine
 10
-8924.31328308908
 20
2693.287062259849
 30
0.0
 11
-8924.31328308908
 21
-4362.379994398399
 31
0.0
  0
LINE
  5
240
330
1F
100
AcDbEntity
  8
0-1
  6
Continuous
 62
     7
370
     5
100
AcDbLine
 10
-9124.313934281932
 20
-4207.967654156929
 30
0.0
 11
-9124.313934281932
 21
-4362.379994398399
 31
0.0
  0
LINE
  5
241
330
1F
100
AcDbEntity
  8
0-1
  6
Continuous
 62
     7
370
     5
100
AcDbLine
 10
-9124.313934281932
 20
7786.083373965226
 30
0.0
 11
-9124.313934281932
 21
7669.351168285586
 31
0.0
  0
LINE
  5
242
330
1F
100
AcDbEntity
  8
0-1
  6
Continuous
 62
     7
370
     5
100
AcDbLine
 10
-9124.313934281932
 20
7786.083373965226
 30
0.0
 11
-10338.79801923362
 21
7786.083373965226
 31
0.0
  0
LINE
  5
243
330
1F
100
AcDbEntity
  8
0-1
  6
Continuous
 62
     7
370
     5
100
AcDbLine
 10
-9828.458355908742
 20
7986.084025158078
 30
0.0
 11
-10338.79801923362
 21
7986.084025158078
 31
0.0
  0
LINE
  5
244
330
1F
100
AcDbEntity
  8
0-1
  6
Continuous
 62
     7
370
     5
100
AcDbLine
 10
2091.712093165146
 20
8688.060874032311
 30
0.0
 11
-9828.458355908742
 21
8688.060874032311
 31
0.0
  0
LINE
  5
245
330
1F
100
AcDbEntity
  8
0-1
  6
Continuous
 62
     7
370
     5
100
AcDbLine
 10
-9828.458355908742
 20
7986.084025158078
 30
0.0
 11
-9828.458355908742
 21
8688.060874032311
 31
0.0
  0
LINE
  5
246
330
1F
100
AcDbEntity
  8
0-1
  6
Continuous
 62
     7
370
     5
100
AcDbLine
 10
8473.353102105677
 20
1784.084319684182
 30
0.0
 11
8473.353102105677
 21
2693.404625424078
 31
0.0
  0
LINE
  5
247
330
1F
100
AcDbEntity
  8
0-1
  6
破線の種類-5
 62
     7
370
     5
100
AcDbLine
 10
8473.353102105677
 20
2350.378393314077
 30
0.0
 11
11330.16697643209
 21
2350.378393314077
 31
0.0
  0
LINE
  5
248
330
1F
100
AcDbEntity
  8
0-1
  6
Continuous
 62
     7
370
     5
100
AcDbLine
 10
11330.16697643209
 20
7786.083373965226
 30
0.0
 11
11330.16697643209
 21
-1869.968256714274
 31
0.0
  0
LINE
  5
249
330
1F
100
AcDbEntity
  8
0-1
  6
Continuous
 62
     7
370
     5
100
AcDbLine
 10
7573.355120534085
 20
2693.372981167377
 30
0.0
 11
8473.353102105677
 21
2693.404625424078
 31
0.0
  0
LINE
  5
24A
330
1F
100
AcDbEntity
  8
0-1
  6
破線の種類-5
 62
     7
370
     5
100
AcDbLine
 10
8473.353102105677
 20
2454.053814557621
 30
0.0
 11
11330.16697643209
 21
2454.053814557621
 31
0.0
  0
LINE
  5
24B
330
1F
100
AcDbEntity
  8
0-1
  6
Continuous
 62
     7
370
     5
100
AcDbLine
 10
7773.355771726937
 20
-4328.055143686442
 30
0.0
 11
7573.355120534085
 21
-4328.055143686442
 31
0.0
  0
LINE
  5
24C
330
1F
100
AcDbEntity
  8
0-1
  6
Continuous
 62
     7
370
     5
100
AcDbLine
 10
10602.84053742438
 20
-4328.055143686442
 30
0.0
 11
10390.16540046456
 21
-4328.055143686442
 31
0.0
  0
LINE
  5
24D
330
1F
100
AcDbEntity
  8
0-1
  6
Continuous
 62
     7
370
     5
100
AcDbLine
 10
12131.2558419779
 20
-3621.545197457507
 30
0.0
 11
11330.16697643209
 21
-3621.545197457507
 31
0.0
  0
LINE
  5
24E
330
1F
100
AcDbEntity
  8
0-1
  6
Continuous
 62
     7
370
     5
100
AcDbLine
 10
11330.16697643209
 20
-2069.968907907125
 30
0.0
 11
11330.16697643209
 21
-2821.572285463534
 31
0.0
  0
LINE
  5
24F
330
1F
100
AcDbEntity
  8
0-1
  6
Continuous
 62
     7
370
     5
100
AcDbLine
 10
11530.16762762494
 20
2469.740038563024
 30
0.0
 11
11530.16762762494
 21
-2845.554152036518
 31
0.0
  0
LINE
  5
250
330
1F
100
AcDbEntity
  8
0-1
  6
Continuous
 62
     7
370
     5
100
AcDbLine
 10
-9726.735849221232
 20
6059.319697563064
 30
0.0
 11
-8924.31328308908
 21
6059.319697563064
 31
0.0
  0
LINE
  5
251
330
1F
100
AcDbEntity
  8
0-1
  6
Continuous
 62
     7
370
     5
100
AcDbLine
 10
-9726.735849221232
 20
7669.351168285586
 30
0.0
 11
-8924.31328308908
 21
7669.351168285586
 31
0.0
  0
LINE
  5
252
330
1F
100
AcDbEntity
  8
0-1
  6
Continuous
 62
     7
370
     5
100
AcDbLine
 10
-10338.79801923362
 20
8579.415001406789
 30
0.0
 11
-10338.79801923362
 21
7786.083373965226
 31
0.0
  0
LINE
  5
253
330
1F
100
AcDbEntity
  8
0-1
  6
Continuous
 62
     7
370
     5
100
AcDbLine
 10
-9124.313934281932
 20
-4362.379994398399
 30
0.0
 11
-8924.31328308908
 21
-4362.379994398399
 31
0.0
  0
ARC
  5
254
330
1F
100
AcDbEntity
  8
0-1
  6
Continuous
 62
     7
370
     5
100
AcDbCircle
 10
8641.95858995993
 20
7786.726717476264
 30
0.0
 40
1244.999986383591
100
AcDbArc
 50
0.0
 51
90.0
  0
ARC
  5
255
330
1F
100
AcDbEntity
  8
0-1
  6
Continuous
 62
     7
370
     5
100
AcDbCircle
 10
11139.76698994245
 20
7786.726717476264
 30
0.0
 40
1244.999986383591
100
AcDbArc
 50
90.0
 51
180.0
  0
ARC
  5
256
330
1F
100
AcDbEntity
  8
0-1
  6
Continuous
 62
     7
370
     5
100
AcDbCircle
 10
11336.27131659259
 20
-3616.546913256384
 30
0.0
 40
794.9999903735599
100
AcDbArc
 50
359.6397705078128
 51
90.43994140624989
  0
ARC
  5
257
330
1F
100
AcDbEntity
  8
0-1
  6
Continuous
 62
     7
370
     5
100
AcDbCircle
 10
-8931.751323835908
 20
6064.317981764201
 30
0.0
 40
794.9999903735625
100
AcDbArc
 50
90.0
 51
180.3602294921872
  0
ARC
  5
258
330
1F
100
AcDbEntity
  8
0-1
  6
Continuous
 62
     7
370
     5
100
AcDbCircle
 10
-8931.751323835908
 20
7664.352884084448
 30
0.0
 40
794.9999903735525
100
AcDbArc
 50
179.6397705078128
 51
270.0
  0
MTEXT
  5
259
330
1F
100
AcDbEntity
  8
0-1
 62
   251
100
AcDbMText
 10
9098.901260775605
 20
-2948.306180973888
 30
0.0
 40
145.5208333333333
 41
0.0
 71
     1
 72
     1
  1
{\fＭＳ Ｐゴシック|b0|i0|c128|p0;\lＥＰＳ}
 73
     1
 44
0.8762322015334064
  0
WIPEOUT
  5
25A
330
1F
100
AcDbEntity
  8
0-2
  6
Continuous
 62
     7
370
     5
 92
      152
310
98000000040000000C0000000E000000120000000C00000016000000000000C20C00000014000000010000006C0000000700000004000000000000000000E0BF000000000000E03F0000000000000000000000000000E03F000000000000E03F0000000000000000000000000000E03F7C9A53B1FBB6D23F00000000000000
310
00000000000000E0BF7C9A53B1FBB6D23F0000000000000000
100
AcDbWipeout
 90
        0
 10
-0.5
 20
0.2924184066490978
 30
0.0
 11
1.0
 21
0.0
 31
0.0
 12
0.0
 22
1.0
 32
0.0
 13
1.0
 23
1.0
340
0
 70
     4
280
     1
281
    50
282
    50
283
     0
360
0
 71
     2
 91
        5
 14
-0.5
 24
0.2924184066490978
 14
0.5
 24
0.2924184066490978
 14
0.5
 24
0.5
 14
-0.5
 24
0.5
 14
-0.5
 24
0.2924184066490978
  0
MTEXT
  5
25B
330
1F
100
AcDbEntity
  8
0-2
 62
     7
100
AcDbMText
 10
-4766.237832628219
 20
-7204.734777540263
 30
0.0
 40
291.0416666666666
 41
0.0
 71
     1
 72
     1
  1
{\fＭＳ Ｐゴシック|b0|i0|c128|p0;\l舞台間口　１１．６ｍ　　　客席幅　　 １４．０ｍ\P舞台奥行　　６．０ｍ　　　客席奥行　２３．０ｍ　\P舞台高さ　 　５．４ｍ　　　客席高さ 　　６．２ｍ\P舞台面積　６９．６㎡　　　客席面積　　３２２㎡}
 73
     1
 44
0.8762322015334064
  0
POLYLINE
  5
25C
102
{ACAD_REACTORS
330
272
102
}
330
1F
100
AcDbEntity
  8
0-2
  6
Continuous
 62
     7
370
     5
100
AcDb2dPolyline
 66
     1
 10
0.0
 20
0.0
 30
0.0
 70
     5
 75
     5
  0
VERTEX
  5
25D
330
25C
100
AcDbEntity
  8
0-2
  6
Continuous
 62
     7
370
     5
100
AcDbVertex
100
AcDb2dVertex
 10
-9828.458355908742
 20
8688.060874032311
 30
0.0
  0
VERTEX
  5
25E
330
25C
100
AcDbEntity
  8
0-2
  6
Continuous
 62
     7
370
     5
100
AcDbVertex
100
AcDb2dVertex
 10
-9828.458355908742
 20
7986.084025158078
 30
0.0
  0
VERTEX
  5
25F
330
25C
100
AcDbEntity
  8
0-2
  6
Continuous
 62
     7
370
     5
100
AcDbVertex
100
AcDb2dVertex
 10
-10338.79801923362
 20
7986.084025158078
 30
0.0
  0
VERTEX
  5
260
330
25C
100
AcDbEntity
  8
0-2
  6
Continuous
 62
     7
370
     5
100
AcDbVertex
100
AcDb2dVertex
 10
-10338.79801923362
 20
7786.083373965226
 30
0.0
  0
VERTEX
  5
261
330
25C
100
AcDbEntity
  8
0-2
  6
Continuous
 62
     7
370
     5
100
AcDbVertex
100
AcDb2dVertex
 10
-9124.313934281932
 20
7786.083373965226
 30
0.0
  0
VERTEX
  5
262
330
25C
100
AcDbEntity
  8
0-2
  6
Continuous
 62
     7
370
     5
100
AcDbVertex
100
AcDb2dVertex
 10
-9124.313934281932
 20
7669.351168285586
 30
0.0
  0
VERTEX
  5
263
330
25C
100
AcDbEntity
  8
0-2
  6
Continuous
 62
     7
370
     5
100
AcDbVertex
100
AcDb2dVertex
 10
-8924.31328308908
 20
7669.351168285586
 30
0.0
  0
VERTEX
  5
264
330
25C
100
AcDbEntity
  8
0-2
  6
Continuous
 62
     7
370
     5
100
AcDbVertex
100
AcDb2dVertex
 10
-8924.31328308908
 20
7786.726717476264
 30
0.0
  0
VERTEX
  5
265
330
25C
100
AcDbEntity
  8
0-2
  6
Continuous
 62
     7
370
     5
100
AcDbVertex
100
AcDb2dVertex
 10
8641.958589959897
 20
7786.726717476264
 30
0.0
  0
VERTEX
  5
266
330
25C
100
AcDbEntity
  8
0-2
  6
Continuous
 62
     7
370
     5
100
AcDbVertex
100
AcDb2dVertex
 10
8641.958589959897
 20
7986.084025158078
 30
0.0
  0
VERTEX
  5
267
330
25C
100
AcDbEntity
  8
0-2
  6
Continuous
 62
     7
370
     5
100
AcDbVertex
100
AcDb2dVertex
 10
8473.353102105677
 20
7986.084025158078
 30
0.0
  0
VERTEX
  5
268
330
25C
100
AcDbEntity
  8
0-2
  6
Continuous
 62
     7
370
     5
100
AcDbVertex
100
AcDb2dVertex
 10
8473.353102105677
 20
8686.091253129289
 30
0.0
  0
VERTEX
  5
269
330
25C
100
AcDbEntity
  8
0-2
  6
Continuous
 62
     7
370
     5
100
AcDbVertex
100
AcDb2dVertex
 10
7573.355120534085
 20
8686.091253129289
 30
0.0
  0
VERTEX
  5
26A
330
25C
100
AcDbEntity
  8
0-2
  6
Continuous
 62
     7
370
     5
100
AcDbVertex
100
AcDb2dVertex
 10
7573.355120534085
 20
7986.084025158078
 30
0.0
  0
VERTEX
  5
26B
330
25C
100
AcDbEntity
  8
0-2
  6
Continuous
 62
     7
370
     5
100
AcDbVertex
100
AcDb2dVertex
 10
4275.652989297412
 20
7986.084025158078
 30
0.0
  0
VERTEX
  5
26C
330
25C
100
AcDbEntity
  8
0-2
  6
Continuous
 62
     7
370
     5
100
AcDbVertex
100
AcDb2dVertex
 10
3375.655007725817
 20
7986.084025158078
 30
0.0
  0
VERTEX
  5
26D
330
25C
100
AcDbEntity
  8
0-2
  6
Continuous
 62
     7
370
     5
100
AcDbVertex
100
AcDb2dVertex
 10
-2326.182233888186
 20
7986.084025158078
 30
0.0
  0
VERTEX
  5
26E
330
25C
100
AcDbEntity
  8
0-2
  6
Continuous
 62
     7
370
     5
100
AcDbVertex
100
AcDb2dVertex
 10
-3226.18021545978
 20
7986.084025158078
 30
0.0
  0
VERTEX
  5
26F
330
25C
100
AcDbEntity
  8
0-2
  6
Continuous
 62
     7
370
     5
100
AcDbVertex
100
AcDb2dVertex
 10
-8924.31328308908
 20
7986.084025158078
 30
0.0
  0
VERTEX
  5
270
330
25C
100
AcDbEntity
  8
0-2
  6
Continuous
 62
     7
370
     5
100
AcDbVertex
100
AcDb2dVertex
 10
-8924.31328308908
 20
8688.060874032311
 30
0.0
  0
SEQEND
  5
271
330
25C
100
AcDbEntity
  8
0-2
  6
Continuous
 62
     7
370
     5
  0
HATCH
  5
272
330
1F
100
AcDbEntity
  8
0-2
  6
Continuous
 62
     7
370
     0
100
AcDbHatch
 10
0.0
 20
0.0
 30
0.0
210
0.0
220
0.0
230
1.0
  2
SOLID
 70
     1
 71
     1
 91
        1
 92
        1
 93
       20
 72
     1
 10
-9828.458355908742
 20
8688.060874032311
 11
-9828.458355908742
 21
7986.084025158078
 72
     1
 10
-9828.458355908742
 20
7986.084025158078
 11
-10338.79801923362
 21
7986.084025158078
 72
     1
 10
-10338.79801923362
 20
7986.084025158078
 11
-10338.79801923362
 21
7786.083373965226
 72
     1
 10
-10338.79801923362
 20
7786.083373965226
 11
-9124.313934281932
 21
7786.083373965226
 72
     1
 10
-9124.313934281932
 20
7786.083373965226
 11
-9124.313934281932
 21
7669.351168285586
 72
     1
 10
-9124.313934281932
 20
7669.351168285586
 11
-8924.31328308908
 21
7669.351168285586
 72
     1
 10
-8924.31328308908
 20
7669.351168285586
 11
-8924.31328308908
 21
7786.726717476264
 72
     1
 10
-8924.31328308908
 20
7786.726717476264
 11
8641.958589959899
 21
7786.726717476264
 72
     1
 10
8641.958589959897
 20
7786.726717476264
 11
8641.958589959897
 21
7986.084025158078
 72
     1
 10
8641.958589959897
 20
7986.084025158078
 11
8473.353102105677
 21
7986.084025158078
 72
     1
 10
8473.353102105677
 20
7986.084025158078
 11
8473.353102105677
 21
8686.091253129289
 72
     1
 10
8473.353102105677
 20
8686.091253129289
 11
7573.355120534085
 21
8686.091253129289
 72
     1
 10
7573.355120534085
 20
8686.091253129289
 11
7573.355120534085
 21
7986.084025158078
 72
     1
 10
7573.355120534085
 20
7986.084025158078
 11
4275.652989297412
 21
7986.084025158078
 72
     1
 10
4275.652989297412
 20
7986.084025158078
 11
3375.655007725817
 21
7986.084025158078
 72
     1
 10
3375.655007725817
 20
7986.084025158078
 11
-2326.182233888186
 21
7986.084025158078
 72
     1
 10
-2326.182233888186
 20
7986.084025158078
 11
-3226.18021545978
 21
7986.084025158078
 72
     1
 10
-3226.18021545978
 20
7986.084025158078
 11
-8924.31328308908
 21
7986.084025158078
 72
     1
 10
-8924.31328308908
 20
7986.084025158078
 11
-8924.31328308908
 21
8688.060874032311
 72
     1
 10
-8924.31328308908
 20
8688.060874032311
 11
-9828.458355908742
 21
8688.060874032311
 97
        1
330
25C
 75
     0
 76
     1
 98
        1
 10
0.0
 20
0.0
  0
WIPEOUT
  5
273
330
1F
100
AcDbEntity
  8
0-2
  6
Continuous
 62
     7
370
     5
 92
      152
310
98000000040000000C0000000E000000120000000C00000016000000000000C20C00000014000000010000006C0000000700000004000000038F954562C4C540FC39AC821532BF400000000000000000836FD2741585C640FC39AC821532BF400000000000000000836FD2741585C64094BB30AF926CBE4000000000000000
310
00038F954562C4C54094BB30AF926CBE400000000000000000
100
AcDbWipeout
 90
        0
 10
11144.76774854167
 20
7788.572985692783
 30
0.0
 11
385.3998790832702
 21
0.0
 31
0.0
 12
0.0
 22
385.3998790832702
 32
0.0
 13
1.0
 23
1.0
340
0
 70
     4
280
     1
281
    50
282
    50
283
     0
360
0
 71
     2
 91
        5
 14
-0.5
 24
-0.0124833975949947
 14
0.5
 24
-0.0124833975949947
 14
0.5
 24
0.5
 14
-0.5
 24
0.5
 14
-0.5
 24
-0.0124833975949947
  0
POLYLINE
  5
274
330
1F
100
AcDbEntity
  8
0-2
  6
Continuous
 62
     7
370
     5
100
AcDb2dPolyline
 66
     1
 10
0.0
 20
0.0
 30
0.0
 70
     5
 75
     5
  0
VERTEX
  5
275
330
274
100
AcDbEntity
  8
0-2
  6
Continuous
 62
     7
370
     5
100
AcDbVertex
100
AcDb2dVertex
 10
11144.76774854167
 20
7986.084025158078
 30
0.0
  0
VERTEX
  5
276
330
274
100
AcDbEntity
  8
0-2
  6
Continuous
 62
     7
370
     5
100
AcDbVertex
100
AcDb2dVertex
 10
11530.16762762494
 20
7986.084025158078
 30
0.0
  0
VERTEX
  5
277
330
274
100
AcDbEntity
  8
0-2
  6
Continuous
 62
     7
370
     5
100
AcDbVertex
100
AcDb2dVertex
 10
11530.16762762494
 20
7788.572985692783
 30
0.0
  0
VERTEX
  5
278
330
274
100
AcDbEntity
  8
0-2
  6
Continuous
 62
     7
370
     5
100
AcDbVertex
100
AcDb2dVertex
 10
11144.76774854167
 20
7788.572985692783
 30
0.0
  0
SEQEND
  5
279
330
274
100
AcDbEntity
  8
0-2
  6
Continuous
 62
     7
370
     5
  0
POLYLINE
  5
27A
102
{ACAD_REACTORS
330
286
102
}
330
1F
100
AcDbEntity
  8
0-2
  6
Continuous
 62
     7
370
     5
100
AcDb2dPolyline
 66
     1
 10
0.0
 20
0.0
 30
0.0
 70
     5
 75
     5
  0
VERTEX
  5
27B
330
27A
100
AcDbEntity
  8
0-2
  6
Continuous
 62
     7
370
     5
100
AcDbVertex
100
AcDb2dVertex
 10
11530.16762762494
 20
2669.740689755876
 30
0.0
  0
VERTEX
  5
27C
330
27A
100
AcDbEntity
  8
0-2
  6
Continuous
 62
     7
370
     5
100
AcDbVertex
100
AcDb2dVertex
 10
11642.34199196869
 20
2669.740689755876
 30
0.0
  0
VERTEX
  5
27D
330
27A
100
AcDbEntity
  8
0-2
  6
Continuous
 62
     7
370
     5
100
AcDbVertex
100
AcDb2dVertex
 10
11642.34199196869
 20
2469.740038563024
 30
0.0
  0
VERTEX
  5
27E
330
27A
100
AcDbEntity
  8
0-2
  6
Continuous
 62
     7
370
     5
100
AcDbVertex
100
AcDb2dVertex
 10
11530.16762762494
 20
2469.740038563024
 30
0.0
  0
VERTEX
  5
27F
330
27A
100
AcDbEntity
  8
0-2
  6
Continuous
 62
     7
370
     5
100
AcDbVertex
100
AcDb2dVertex
 10
11530.16762762494
 20
-2806.42701430722
 30
0.0
  0
VERTEX
  5
280
330
27A
100
AcDbEntity
  8
0-2
  6
Continuous
 62
     7
370
     5
100
AcDbVertex
100
AcDb2dVertex
 10
11330.16697643209
 20
-2806.42701430722
 30
0.0
  0
VERTEX
  5
281
330
27A
100
AcDbEntity
  8
0-2
  6
Continuous
 62
     7
370
     5
100
AcDbVertex
100
AcDb2dVertex
 10
11330.16697643209
 20
7786.083373965226
 30
0.0
  0
VERTEX
  5
282
330
27A
100
AcDbEntity
  8
0-2
  6
Continuous
 62
     7
370
     5
100
AcDbVertex
100
AcDb2dVertex
 10
11144.76774854167
 20
7786.083373965226
 30
0.0
  0
VERTEX
  5
283
330
27A
100
AcDbEntity
  8
0-2
  6
Continuous
 62
     7
370
     5
100
AcDbVertex
100
AcDb2dVertex
 10
11144.76774854167
 20
7986.084025158078
 30
0.0
  0
VERTEX
  5
284
330
27A
100
AcDbEntity
  8
0-2
  6
Continuous
 62
     7
370
     5
100
AcDbVertex
100
AcDb2dVertex
 10
11530.16762762494
 20
7986.084025158078
 30
0.0
  0
SEQEND
  5
285
330
27A
100
AcDbEntity
  8
0-2
  6
Continuous
 62
     7
370
     5
  0
HATCH
  5
286
330
1F
100
AcDbEntity
  8
0-2
  6
Continuous
 62
     7
370
     0
100
AcDbHatch
 10
0.0
 20
0.0
 30
0.0
210
0.0
220
0.0
230
1.0
  2
SOLID
 70
     1
 71
     1
 91
        1
 92
        1
 93
       10
 72
     1
 10
11530.16762762494
 20
2669.740689755876
 11
11642.34199196869
 21
2669.740689755876
 72
     1
 10
11642.34199196869
 20
2669.740689755876
 11
11642.34199196869
 21
2469.740038563024
 72
     1
 10
11642.34199196869
 20
2469.740038563024
 11
11530.16762762494
 21
2469.740038563024
 72
     1
 10
11530.16762762494
 20
2469.740038563024
 11
11530.16762762494
 21
-2806.42701430722
 72
     1
 10
11530.16762762494
 20
-2806.42701430722
 11
11330.16697643209
 21
-2806.42701430722
 72
     1
 10
11330.16697643209
 20
-2806.42701430722
 11
11330.16697643209
 21
7786.083373965227
 72
     1
 10
11330.16697643209
 20
7786.083373965226
 11
11144.76774854167
 21
7786.083373965226
 72
     1
 10
11144.76774854167
 20
7786.083373965226
 11
11144.76774854167
 21
7986.084025158078
 72
     1
 10
11144.76774854167
 20
7986.084025158078
 11
11530.16762762494
 21
7986.084025158078
 72
     1
 10
11530.16762762494
 20
7986.084025158078
 11
11530.16762762494
 21
2669.740689755876
 97
        1
330
27A
 75
     0
 76
     1
 98
        1
 10
0.0
 20
0.0
  0
WIPEOUT
  5
287
330
1F
100
AcDbEntity
  8
0-2
  6
Continuous
 62
     7
370
     5
 92
      152
310
98000000040000000C0000000E000000120000000C00000016000000000000C20C00000014000000010000006C0000000700000004000000000000000000E0BF000000000000E03F0000000000000000000000000000E03F000000000000E03F0000000000000000000000000000E03FBE6A3D207A9ADA3F00000000000000
310
00000000000000E0BFBE6A3D207A9ADA3F0000000000000000
100
AcDbWipeout
 90
        0
 10
-0.5
 20
0.4156785311549064
 30
0.0
 11
1.0
 21
0.0
 31
0.0
 12
0.0
 22
1.0
 32
0.0
 13
1.0
 23
1.0
340
0
 70
     4
280
     1
281
    50
282
    50
283
     0
360
0
 71
     2
 91
        5
 14
-0.5
 24
0.4156785311549064
 14
0.5
 24
0.4156785311549064
 14
0.5
 24
0.5
 14
-0.5
 24
0.5
 14
-0.5
 24
0.4156785311549064
  0
MTEXT
  5
288
330
1F
100
AcDbEntity
  8
0-2
 62
     7
100
AcDbMText
 10
-2345.121280399755
 20
9121.000763470553
 30
0.0
 40
194.0277777777778
 41
0.0
 71
     1
 72
     1
  1
{\fＭＳ Ｐゴシック|b0|i0|c128|p0;\l通路（楽屋、荷物用ｴﾚﾍﾞｰﾀ）}
 73
     1
 44
0.8762322015334064
  0
INSERT
  5
289
330
1F
100
AcDbEntity
  8
0-2
 62
     7
100
AcDbBlockReference
  2
グループ
 10
0.0
 20
0.0
 30
0.0
  0
INSERT
  5
28A
330
1F
100
AcDbEntity
  8
0-2
 62
     7
100
AcDbBlockReference
  2
グループ-1
 10
0.0
 20
0.0
 30
0.0
  0
SOLID
  5
28B
330
1F
100
AcDbEntity
  8
0-2
  6
Continuous
 62
     7
370
     5
100
AcDbTrace
 10
-13321.19007251644
 20
7778.572985692783
 30
0.0
 11
-11932.15699542779
 21
7778.572985692783
 31
0.0
 12
-13321.19007251644
 22
7986.084025158078
 32
0.0
 13
-11932.15699542779
 23
7986.084025158078
 33
0.0
  0
SOLID
  5
28C
330
1F
100
AcDbEntity
  8
0-2
  6
Continuous
 62
     7
370
     5
100
AcDbTrace
 10
-13321.19007251644
 20
2700.858720505137
 30
0.0
 11
-13121.18942132359
 21
2700.858720505137
 31
0.0
 12
-13321.19007251644
 22
7778.572985692783
 32
0.0
 13
-13121.18942132359
 23
7778.572985692783
 33
0.0
  0
SOLID
  5
28D
330
1F
100
AcDbEntity
  8
0-2
  6
Continuous
 62
     7
370
     5
100
AcDbTrace
 10
-13321.19007251644
 20
1800.850841341067
 30
0.0
 11
-12621.1927421377
 21
1800.850841341067
 31
0.0
 12
-13321.19007251644
 22
2700.858720505137
 32
0.0
 13
-12621.1927421377
 23
2700.858720505137
 33
0.0
  0
SOLID
  5
28E
330
1F
100
AcDbEntity
  8
0-2
  6
Continuous
 62
     7
370
     5
100
AcDbTrace
 10
-12626.67353397211
 20
-4890.568217237967
 30
0.0
 11
-12421.19209094485
 21
-4890.568217237967
 31
0.0
 12
-12626.67353397211
 22
7778.572985692784
 32
0.0
 13
-12421.19209094485
 23
7778.572985692784
 33
0.0
  0
MTEXT
  5
28F
330
1F
100
AcDbEntity
  8
0-1
 62
     7
100
AcDbMText
 10
-11583.50896730486
 20
3952.600763470557
 30
0.0
 40
194.0277777777778
 41
0.0
 71
     1
 72
     1
  1
{\fＭＳ Ｐゴシック|b0|i0|c128|p0;\lスロープ}
 73
     1
 44
0.8762322015334064
  0
WIPEOUT
  5
290
330
1F
100
AcDbEntity
  8
0-2
  6
Continuous
 62
     7
370
     5
 92
      152
310
98000000040000000C0000000E000000120000000C00000016000000000000C20C00000014000000010000006C0000000700000004000000000000000000E0BF000000000000E03F0000000000000000000000000000E03F000000000000E03F0000000000000000000000000000E03F0000002E5555653E00000000000000
310
00000000000000E0BF0000002E5555653E0000000000000000
100
AcDbWipeout
 90
        0
 10
-0.5
 20
0.0000000397364255
 30
0.0
 11
1.0
 21
0.0
 31
0.0
 12
0.0
 22
1.0
 32
0.0
 13
1.0
 23
1.0
340
0
 70
     4
280
     1
281
    50
282
    50
283
     0
360
0
 71
     2
 91
        5
 14
-0.5
 24
0.0000000397364255
 14
0.5
 24
0.0000000397364255
 14
0.5
 24
0.5
 14
-0.5
 24
0.5
 14
-0.5
 24
0.0000000397364255
  0
MTEXT
  5
291
330
1F
100
AcDbEntity
  8
0-2
 62
     7
100
AcDbMText
 10
12190.36668427469
 20
5027.893819026111
 30
0.0
 40
145.5208333333333
 41
0.0
 71
     1
 72
     1
  1
{\fＭＳ Ｐゴシック|b0|i0|c128|p0;\l階段}
 73
     1
 44
0.8762322015334064
  0
LINE
  5
292
330
1F
100
AcDbEntity
  8
0-2
  6
Continuous
 62
     7
370
     5
100
AcDbLine
 10
12440.53704891389
 20
5227.912031860549
 30
0.0
 11
12440.53704891389
 21
6903.178534602277
 31
0.0
  0
POLYLINE
  5
293
102
{ACAD_REACTORS
330
298
102
}
330
1F
100
AcDbEntity
  8
0-2
  6
Continuous
 62
     7
370
     5
100
AcDb2dPolyline
 66
     1
 10
0.0
 20
0.0
 30
0.0
 70
     5
 75
     5
  0
VERTEX
  5
294
330
293
100
AcDbEntity
  8
0-2
  6
Continuous
 62
     7
370
     5
100
AcDbVertex
100
AcDb2dVertex
 10
12355.46318031701
 20
6585.678534602277
 30
0.0
  0
VERTEX
  5
295
330
293
100
AcDbEntity
  8
0-2
  6
Continuous
 62
     7
370
     5
100
AcDbVertex
100
AcDb2dVertex
 10
12440.53704891389
 20
6903.178534602277
 30
0.0
  0
VERTEX
  5
296
330
293
100
AcDbEntity
  8
0-2
  6
Continuous
 62
     7
370
     5
100
AcDbVertex
100
AcDb2dVertex
 10
12525.61091751077
 20
6585.678534602277
 30
0.0
  0
SEQEND
  5
297
330
293
100
AcDbEntity
  8
0-2
  6
Continuous
 62
     7
370
     5
  0
HATCH
  5
298
330
1F
100
AcDbEntity
  8
0-2
  6
Continuous
 62
     7
370
     0
100
AcDbHatch
 10
0.0
 20
0.0
 30
0.0
210
0.0
220
0.0
230
1.0
  2
SOLID
 70
     1
 71
     1
 91
        1
 92
        1
 93
        3
 72
     1
 10
12355.46318031701
 20
6585.678534602277
 11
12440.53704891389
 21
6903.178534602277
 72
     1
 10
12440.53704891389
 20
6903.178534602277
 11
12525.61091751077
 21
6585.678534602277
 72
     1
 10
12525.61091751077
 20
6585.678534602277
 11
12355.46318031701
 21
6585.678534602277
 97
        1
330
293
 75
     0
 76
     1
 98
        1
 10
0.0
 20
0.0
  0
LINE
  5
299
330
1F
100
AcDbEntity
  8
0-2
  6
Continuous
 62
     7
370
     5
100
AcDbLine
 10
13350.90647020285
 20
5227.912031860549
 30
0.0
 11
13350.90647020285
 21
6903.178534602277
 31
0.0
  0
DIMENSION
  5
29A
330
1F
100
AcDbEntity
  8
寸法
  6
Continuous
 62
     8
370
     5
100
AcDbDimension
  2
*D3
 10
-6470.274511440189
 20
649.8990830240728
 30
0.0
 11
-670.2745114401869
 21
649.8990830240728
 31
0.0
 70
    32
 71
     5
 42
11600.0
  3
SIA
100
AcDbAlignedDimension
 13
5129.725488559814
 23
1849.960783142407
 33
0.0
 14
-6470.274511440189
 24
1849.960783142407
 34
0.0
100
AcDbRotatedDimension
1001
ACAD
1000
DSTYLE
1002
{
1070
   147
1040
39.6875
1070
    77
1070
     0
1070
   340
1005
75
1002
}
  0
DIMENSION
  5
29B
330
1F
100
AcDbEntity
  8
寸法
  6
Continuous
 62
   251
370
     5
100
AcDbDimension
  2
*D4
 10
6511.295645095322
 20
1674.505871758906
 30
0.0
 11
6113.796686761919
 21
-1095.494128241095
 31
0.0
 70
    32
 71
     5
 42
5540.000000000001
  3
SIA
100
AcDbAlignedDimension
 13
5488.987262230998
 23
-3865.494128241095
 33
0.0
 14
5488.987262230998
 24
1674.505871758905
 34
0.0
 50
-90.0
100
AcDbRotatedDimension
1001
ACAD
1000
DSTYLE
1002
{
1070
   147
1040
300.00000000007
1070
   340
1005
75
1070
   279
1070
     2
1002
}
  0
DIMENSION
  5
29C
330
1F
100
AcDbEntity
  8
寸法
  6
Continuous
 62
   251
370
     5
100
AcDbDimension
  2
*D5
 10
-6670.273990957413
 20
-4915.568217237932
 30
0.0
 11
-4747.966649058639
 21
-4915.568217237932
 31
0.0
 70
   160
 71
     5
 42
3500.000000000001
  3
SIA
100
AcDbAlignedDimension
 13
-3170.273990957412
 23
-3865.494128241095
 33
0.0
 14
-6670.273990957413
 24
-3865.494128241095
 34
0.0
100
AcDbRotatedDimension
1001
ACAD
1000
DSTYLE
1002
{
1070
   147
1040
39.6875
1070
    77
1070
     0
1070
   340
1005
75
1002
}
  0
DIMENSION
  5
29D
330
1F
100
AcDbEntity
  8
寸法
  6
Continuous
 62
   251
370
     5
100
AcDbDimension
  2
*D6
 10
-3170.273990957412
 20
-4915.568217237931
 30
0.0
 11
-670.2745114401887
 21
-4915.568217237931
 31
0.0
 70
    32
 71
     5
 42
4999.998959034447
  3
SIA
100
AcDbAlignedDimension
 13
1829.724968077034
 23
-3865.494128241095
 33
0.0
 14
-3170.273990957412
 24
-3865.494128241095
 34
0.0
100
AcDbRotatedDimension
1001
ACAD
1000
DSTYLE
1002
{
1070
   147
1040
39.6875
1070
    77
1070
     0
1070
   340
1005
75
1002
}
  0
DIMENSION
  5
29E
330
1F
100
AcDbEntity
  8
寸法
  6
Continuous
 62
   251
370
     5
100
AcDbDimension
  2
*D7
 10
1829.724968077034
 20
-4915.568217237931
 30
0.0
 11
3579.724968077036
 21
-4915.568217237931
 31
0.0
 70
    32
 71
     5
 42
3500.000000000004
  3
SIA
100
AcDbAlignedDimension
 13
5329.724968077038
 23
-3865.494128241095
 33
0.0
 14
1829.724968077034
 24
-3865.494128241095
 34
0.0
100
AcDbRotatedDimension
1001
ACAD
1000
DSTYLE
1002
{
1070
   147
1040
39.6875
1070
    77
1070
     0
1070
   340
1005
75
1002
}
  0
LINE
  5
29F
330
1F
100
AcDbEntity
  8
0-8 文字
  6
Continuous
 62
   253
370
     5
100
AcDbLine
 10
8716.335031067636
 20
3463.405152998061
 30
0.0
 11
8716.335031067636
 21
3923.405660982371
 31
0.0
  0
LINE
  5
2A0
330
1F
100
AcDbEntity
  8
0-8 文字
  6
Continuous
 62
   253
370
     5
100
AcDbLine
 10
9316.3351288476
 20
3463.405152998061
 30
0.0
 11
9316.3351288476
 21
3923.405660982371
 31
0.0
  0
LINE
  5
2A1
330
1F
100
AcDbEntity
  8
0-8 文字
  6
Continuous
 62
   253
370
     5
100
AcDbLine
 10
8716.335031067636
 20
3923.405660982371
 30
0.0
 11
10816.33537329751
 21
3923.405660982371
 31
0.0
  0
LINE
  5
2A2
330
1F
100
AcDbEntity
  8
0-8 文字
  6
Continuous
 62
   253
370
     5
100
AcDbLine
 10
10816.33537329751
 20
3923.405660982371
 30
0.0
 11
10816.33537329751
 21
3463.405152998061
 31
0.0
  0
LINE
  5
2A3
330
1F
100
AcDbEntity
  8
0-8 文字
  6
Continuous
 62
   253
370
     5
100
AcDbLine
 10
10316.33529181421
 20
3923.405660982371
 30
0.0
 11
10316.33529181421
 21
3463.405152998061
 31
0.0
  0
LINE
  5
2A4
330
1F
100
AcDbEntity
  8
0-8 文字
  6
Continuous
 62
   253
370
     5
100
AcDbLine
 10
9816.335210330904
 20
3923.405660982371
 30
0.0
 11
9816.335210330904
 21
3463.405152998061
 31
0.0
  0
LINE
  5
2A5
330
1F
100
AcDbEntity
  8
0-8 文字
  6
Continuous
 62
   253
370
     5
100
AcDbLine
 10
8716.335031067636
 20
3463.405152998061
 30
0.0
 11
10816.33537329751
 21
3463.405152998061
 31
0.0
  0
MTEXT
  5
2A6
330
1F
100
AcDbEntity
  8
0-8 文字
 62
   253
100
AcDbMText
 10
8871.33521108497
 20
3740.281237193743
 30
0.0
 40
171.875
 41
0.0
 71
     1
 72
     1
  1
{\fＭＳ Ｐゴシック|b0|i0|c128|p0;\lＢＯ}
 73
     1
 44
0.8762322015334064
  0
MTEXT
  5
2A7
330
1F
100
AcDbEntity
  8
0-8 文字
 62
   253
100
AcDbMText
 10
9416.335454444026
 20
3730.90508139379
 30
0.0
 40
137.5
 41
0.0
 71
     1
 72
     1
  1
{\fＭＳ Ｐゴシック|b0|i0|c128|p0;\l#72}
 73
     1
 44
0.8762322015334064
  0
INSERT
  5
2A8
330
1F
100
AcDbEntity
  8
0-2
 62
     7
100
AcDbBlockReference
  2
グループ-2
 10
0.0
 20
0.0
 30
0.0
  0
INSERT
  5
2A9
330
1F
100
AcDbEntity
  8
0-2
 62
     7
100
AcDbBlockReference
  2
グループ-3
 10
0.0
 20
0.0
 30
0.0
  0
WIPEOUT
  5
2AA
330
1F
100
AcDbEntity
  8
0-2
  6
Continuous
 62
     7
370
     5
 92
      152
310
98000000040000000C0000000E000000120000000C00000016000000000000C20C00000014000000010000006C0000000700000004000000FD7011963ACEC2C0F013D3F9920AA5400000000000000000FE7011963A6EC1C0F013D3F9920AA5400000000000000000FE7011963A6EC1C0E027A6F325ED9B4000000000000000
310
00FD7011963ACEC2C0E027A6F325ED9B400000000000000000
100
AcDbWipeout
 90
        0
 10
-9628.457704715891
 20
1787.287062259849
 30
0.0
 11
906.0
 21
0.0
 31
0.0
 12
0.0
 22
906.0
 32
0.0
 13
1.0
 23
1.0
340
0
 70
     4
280
     1
281
    50
282
    50
283
     0
360
0
 71
     2
 91
        5
 14
-0.5
 24
-0.5
 14
0.2770419426048552
 24
-0.5
 14
0.2770419426048552
 24
0.5
 14
-0.5
 24
0.5
 14
-0.5
 24
-0.5
  0
POLYLINE
  5
2AB
330
1F
100
AcDbEntity
  8
0-2
  6
Continuous
 62
     7
370
     5
100
AcDb2dPolyline
 66
     1
 10
0.0
 20
0.0
 30
0.0
 70
     5
 75
     5
  0
VERTEX
  5
2AC
330
2AB
100
AcDbEntity
  8
0-2
  6
Continuous
 62
     7
370
     5
100
AcDbVertex
100
AcDb2dVertex
 10
-9628.457704715891
 20
2693.287062259849
 30
0.0
  0
VERTEX
  5
2AD
330
2AB
100
AcDbEntity
  8
0-2
  6
Continuous
 62
     7
370
     5
100
AcDbVertex
100
AcDb2dVertex
 10
-8924.457704715893
 20
2693.287062259849
 30
0.0
  0
VERTEX
  5
2AE
330
2AB
100
AcDbEntity
  8
0-2
  6
Continuous
 62
     7
370
     5
100
AcDbVertex
100
AcDb2dVertex
 10
-8924.457704715893
 20
1787.287062259849
 30
0.0
  0
VERTEX
  5
2AF
330
2AB
100
AcDbEntity
  8
0-2
  6
Continuous
 62
     7
370
     5
100
AcDbVertex
100
AcDb2dVertex
 10
-9628.457704715891
 20
1787.287062259849
 30
0.0
  0
SEQEND
  5
2B0
330
2AB
100
AcDbEntity
  8
0-2
  6
Continuous
 62
     7
370
     5
  0
INSERT
  5
2B1
330
1F
100
AcDbEntity
  8
0-2
 62
   251
100
AcDbBlockReference
  2
グループ-4
 10
0.0
 20
0.0
 30
0.0
  0
INSERT
  5
2B2
330
1F
100
AcDbEntity
  8
0-2
 62
   251
100
AcDbBlockReference
  2
グループ-5
 10
0.0
 20
0.0
 30
0.0
  0
WIPEOUT
  5
2B3
330
1F
100
AcDbEntity
  8
0-2
  6
Continuous
 62
   251
370
     5
 92
      152
310
98000000040000000C0000000E000000120000000C00000016000000000000C20C00000014000000010000006C0000000700000004000000000000000000E0BF000000000000E03F0000000000000000000000000000E03F000000000000E03F0000000000000000000000000000E03F0000002E5555653E00000000000000
310
00000000000000E0BF0000002E5555653E0000000000000000
100
AcDbWipeout
 90
        0
 10
-0.5
 20
0.0000000397364255
 30
0.0
 11
1.0
 21
0.0
 31
0.0
 12
0.0
 22
1.0
 32
0.0
 13
1.0
 23
1.0
340
0
 70
     4
280
     1
281
    50
282
    50
283
     0
360
0
 71
     2
 91
        5
 14
-0.5
 24
0.0000000397364255
 14
0.5
 24
0.0000000397364255
 14
0.5
 24
0.5
 14
-0.5
 24
0.5
 14
-0.5
 24
0.0000000397364255
  0
MTEXT
  5
2B4
330
1F
100
AcDbEntity
  8
0-2
 62
   251
100
AcDbMText
 10
-7140.889538292667
 20
4741.25793141448
 30
0.0
 40
145.5208333333333
 41
0.0
 71
     1
 72
     1
  1
{\fＭＳ Ｐゴシック|b0|i0|c128|p0;\l袖幕}
 73
     1
 44
0.8762322015334064
  0
WIPEOUT
  5
2B5
330
1F
100
AcDbEntity
  8
0-2
  6
Continuous
 62
   251
370
     5
 92
      152
310
98000000040000000C0000000E000000120000000C00000016000000000000C20C00000014000000010000006C0000000700000004000000000000000000E0BF000000000000E03F0000000000000000000000000000E03F000000000000E03F0000000000000000000000000000E03F0000002E5555653E00000000000000
310
00000000000000E0BF0000002E5555653E0000000000000000
100
AcDbWipeout
 90
        0
 10
-0.5
 20
0.0000000397364255
 30
0.0
 11
1.0
 21
0.0
 31
0.0
 12
0.0
 22
1.0
 32
0.0
 13
1.0
 23
1.0
340
0
 70
     4
280
     1
281
    50
282
    50
283
     0
360
0
 71
     2
 91
        5
 14
-0.5
 24
0.0000000397364255
 14
0.5
 24
0.0000000397364255
 14
0.5
 24
0.5
 14
-0.5
 24
0.5
 14
-0.5
 24
0.0000000397364255
  0
MTEXT
  5
2B6
330
1F
100
AcDbEntity
  8
0-2
 62
   251
100
AcDbMText
 10
5406.16352557313
 20
4741.25793141448
 30
0.0
 40
145.5208333333333
 41
0.0
 71
     1
 72
     1
  1
{\fＭＳ Ｐゴシック|b0|i0|c128|p0;\l袖幕}
 73
     1
 44
0.8762322015334064
  0
WIPEOUT
  5
2B7
330
1F
100
AcDbEntity
  8
0-2
  6
Continuous
 62
     7
370
    25
 92
      152
310
98000000040000000C0000000E000000120000000C00000016000000000000C20C00000014000000010000006C0000000700000004000000C90628BBFB60C1C02177615E2581A7400000000000000000930D5076F7D9BEC02177615E2581A7400000000000000000930D5076F7D9BEC02077615E2529A54000000000000000
310
00C90628BBFB60C1C02077615E2529A5400000000000000000
100
AcDbWipeout
 90
        0
 10
-8897.96664905864
 20
2708.572985692779
 30
0.0
 11
1000.0
 21
0.0
 31
0.0
 12
0.0
 22
1000.0
 32
0.0
 13
1.0
 23
1.0
340
0
 70
     4
280
     1
281
    50
282
    50
283
     0
360
0
 71
     2
 91
        5
 14
-0.5
 24
0.1999999999999997
 14
0.4999999999999991
 24
0.1999999999999997
 14
0.4999999999999991
 24
0.5
 14
-0.5
 24
0.5
 14
-0.5
 24
0.1999999999999997
  0
POLYLINE
  5
2B8
330
1F
100
AcDbEntity
  8
0-2
  6
Continuous
 62
     7
370
    25
100
AcDb2dPolyline
 66
     1
 10
0.0
 20
0.0
 30
0.0
 70
     5
 75
     5
  0
VERTEX
  5
2B9
330
2B8
100
AcDbEntity
  8
0-2
  6
Continuous
 62
     7
370
    25
100
AcDbVertex
100
AcDb2dVertex
 10
-8897.96664905864
 20
3008.572985692779
 30
0.0
  0
VERTEX
  5
2BA
330
2B8
100
AcDbEntity
  8
0-2
  6
Continuous
 62
     7
370
    25
100
AcDbVertex
100
AcDb2dVertex
 10
-7897.966649058641
 20
3008.572985692779
 30
0.0
  0
VERTEX
  5
2BB
330
2B8
100
AcDbEntity
  8
0-2
  6
Continuous
 62
     7
370
    25
100
AcDbVertex
100
AcDb2dVertex
 10
-7897.966649058641
 20
2708.572985692779
 30
0.0
  0
VERTEX
  5
2BC
330
2B8
100
AcDbEntity
  8
0-2
  6
Continuous
 62
     7
370
    25
100
AcDbVertex
100
AcDb2dVertex
 10
-8897.96664905864
 20
2708.572985692779
 30
0.0
  0
SEQEND
  5
2BD
330
2B8
100
AcDbEntity
  8
0-2
  6
Continuous
 62
     7
370
    25
  0
WIPEOUT
  5
2BE
330
1F
100
AcDbEntity
  8
0-2
  6
Continuous
 62
     7
370
    50
 92
      152
310
98000000040000000C0000000E000000120000000C00000016000000000000C20C00000014000000010000006C0000000700000004000000000000000000E0BF000000000000E03F0000000000000000000000000000E03F000000000000E03F0000000000000000000000000000E03FCA672FA15555C53F00000000000000
310
00000000000000E0BFCA672FA15555C53F0000000000000000
100
AcDbWipeout
 90
        0
 10
-0.5
 20
0.166666701987934
 30
0.0
 11
1.0
 21
0.0
 31
0.0
 12
0.0
 22
1.0
 32
0.0
 13
1.0
 23
1.0
340
0
 70
     4
280
     1
281
    50
282
    50
283
     0
360
0
 71
     2
 91
        5
 14
-0.5
 24
0.166666701987934
 14
0.5
 24
0.166666701987934
 14
0.5
 24
0.4999999999999999
 14
-0.5
 24
0.4999999999999999
 14
-0.5
 24
0.166666701987934
  0
MTEXT
  5
2BF
330
1F
100
AcDbEntity
  8
0-2
 62
     7
100
AcDbMText
 10
-8715.46664905864
 20
2927.893819026115
 30
0.0
 40
145.5208333333333
 41
0.0
 71
     1
 72
     1
  1
{\fＭＳ Ｐゴシック|b0|i0|c128|p0;\l操作盤}
 73
     1
 44
0.8762322015334064
  0
LINE
  5
2C0
330
1F
100
AcDbEntity
  8
0-2
  6
Continuous
 62
     7
370
     5
100
AcDbLine
 10
-10338.79801923362
 20
7786.083373965226
 30
0.0
 11
-13321.19007251644
 21
7778.572985692783
 31
0.0
  0
POLYLINE
  5
2C1
102
{ACAD_REACTORS
330
2CB
102
}
330
1F
100
AcDbEntity
  8
0-2
  6
Continuous
 62
     7
370
     5
100
AcDb2dPolyline
 66
     1
 10
0.0
 20
0.0
 30
0.0
 70
     5
 75
     5
  0
VERTEX
  5
2C2
330
2C1
100
AcDbEntity
  8
0-2
  6
Continuous
 62
     7
370
     5
100
AcDbVertex
100
AcDb2dVertex
 10
8473.355120534085
 20
8686.091253129289
 30
0.0
  0
VERTEX
  5
2C3
330
2C1
100
AcDbEntity
  8
0-2
  6
Continuous
 62
     7
370
     5
100
AcDbVertex
100
AcDb2dVertex
 10
8473.355120534085
 20
7786.091253129289
 30
0.0
  0
VERTEX
  5
2C4
330
2C1
100
AcDbEntity
  8
0-2
  6
Continuous
 62
     7
370
     5
100
AcDbVertex
100
AcDb2dVertex
 10
7573.355120534085
 20
7786.091253129289
 30
0.0
  0
VERTEX
  5
2C5
330
2C1
100
AcDbEntity
  8
0-2
  6
Continuous
 62
     7
370
     5
100
AcDbVertex
100
AcDb2dVertex
 10
7573.355120534085
 20
7986.084025158078
 30
0.0
  0
VERTEX
  5
2C6
330
2C1
100
AcDbEntity
  8
0-2
  6
Continuous
 62
     7
370
     5
100
AcDbVertex
100
AcDb2dVertex
 10
-8924.31328308908
 20
7986.084025158078
 30
0.0
  0
VERTEX
  5
2C7
330
2C1
100
AcDbEntity
  8
0-2
  6
Continuous
 62
     7
370
     5
100
AcDbVertex
100
AcDb2dVertex
 10
-8924.31328308908
 20
8062.525380233874
 30
0.0
  0
VERTEX
  5
2C8
330
2C1
100
AcDbEntity
  8
0-2
  6
Continuous
 62
     7
370
     5
100
AcDbVertex
100
AcDb2dVertex
 10
7573.355120534085
 20
8062.525380233874
 30
0.0
  0
VERTEX
  5
2C9
330
2C1
100
AcDbEntity
  8
0-2
  6
Continuous
 62
     7
370
     5
100
AcDbVertex
100
AcDb2dVertex
 10
7573.355120534085
 20
8686.091253129289
 30
0.0
  0
SEQEND
  5
2CA
330
2C1
100
AcDbEntity
  8
0-2
  6
Continuous
 62
     7
370
     5
  0
HATCH
  5
2CB
330
1F
100
AcDbEntity
  8
0-2
  6
Continuous
 62
     7
370
     0
100
AcDbHatch
 10
0.0
 20
0.0
 30
0.0
210
0.0
220
0.0
230
1.0
  2
SOLID
 70
     1
 71
     1
 91
        1
 92
        1
 93
        8
 72
     1
 10
8473.355120534085
 20
8686.091253129289
 11
8473.355120534085
 21
7786.091253129289
 72
     1
 10
8473.355120534085
 20
7786.091253129289
 11
7573.355120534085
 21
7786.091253129289
 72
     1
 10
7573.355120534085
 20
7786.091253129289
 11
7573.355120534085
 21
7986.084025158078
 72
     1
 10
7573.355120534085
 20
7986.084025158078
 11
-8924.313283089083
 21
7986.084025158078
 72
     1
 10
-8924.31328308908
 20
7986.084025158078
 11
-8924.31328308908
 21
8062.525380233874
 72
     1
 10
-8924.31328308908
 20
8062.525380233874
 11
7573.355120534086
 21
8062.525380233874
 72
     1
 10
7573.355120534085
 20
8062.525380233874
 11
7573.355120534085
 21
8686.091253129289
 72
     1
 10
7573.355120534085
 20
8686.091253129289
 11
8473.355120534085
 21
8686.091253129289
 97
        1
330
2C1
 75
     0
 76
     1
 98
        1
 10
0.0
 20
0.0
  0
LINE
  5
2CC
330
1F
100
AcDbEntity
  8
0-9 ｾﾝﾀｰﾗｲﾝ
  6
破線の種類-5
 62
     7
370
     5
100
AcDbLine
 10
-671.5435510686332
 20
1780.726717476264
 30
0.0
 11
-671.5435510686332
 21
8380.730886053527
 31
0.0
  0
LINE
  5
2CD
330
1F
100
AcDbEntity
  8
0-9 ｾﾝﾀｰﾗｲﾝ
  6
破線の種類-5
 62
     7
370
     5
100
AcDbLine
 10
1146.456132791125
 20
1780.726717476264
 30
0.0
 11
1146.456132791125
 21
8380.730886053527
 31
0.0
  0
LINE
  5
2CE
330
1F
100
AcDbEntity
  8
0-9 ｾﾝﾀｰﾗｲﾝ
  6
破線の種類-5
 62
     7
370
     5
100
AcDbLine
 10
4782.455500510643
 20
1780.726717476264
 30
0.0
 11
4782.455500510643
 21
8380.730886053527
 31
0.0
  0
LINE
  5
2CF
330
1F
100
AcDbEntity
  8
0-9 ｾﾝﾀｰﾗｲﾝ
  6
破線の種類-5
 62
     7
370
     5
100
AcDbLine
 10
-6125.542602647906
 20
1780.726717476264
 30
0.0
 11
-6125.542602647906
 21
8380.730886053527
 31
0.0
  0
LINE
  5
2D0
330
1F
100
AcDbEntity
  8
0-9 ｾﾝﾀｰﾗｲﾝ
  6
破線の種類-5
 62
     7
370
     5
100
AcDbLine
 10
6600.455184370401
 20
2377.193352086993
 30
0.0
 11
6600.455184370401
 21
8274.510040336168
 31
0.0
  0
LINE
  5
2D1
330
1F
100
AcDbEntity
  8
0-9 ｾﾝﾀｰﾗｲﾝ
  6
破線の種類-5
 62
     7
370
     5
100
AcDbLine
 10
-7943.542286507664
 20
2712.431782762069
 30
0.0
 11
-7943.542286507664
 21
8274.510040336168
 31
0.0
  0
LINE
  5
2D2
330
1F
100
AcDbEntity
  8
0-9 ｾﾝﾀｰﾗｲﾝ
  6
破線の種類-5
 62
     7
370
     5
100
AcDbLine
 10
2964.455816650884
 20
1780.726717476264
 30
0.0
 11
2964.455816650884
 21
8380.730886053527
 31
0.0
  0
WIPEOUT
  5
2D3
330
1F
100
AcDbEntity
  8
0-8 文字
  6
Continuous
 62
   251
370
     5
 92
      152
310
98000000040000000C0000000E000000120000000C00000016000000000000C20C00000014000000010000006C0000000700000004000000000000000000E0BF000000000000E03F0000000000000000000000000000E03F000000000000E03F0000000000000000000000000000E03FCC4602BEFFFFDFBF00000000000000
310
00000000000000E0BFCC4602BEFFFFDFBF0000000000000000
100
AcDbWipeout
 90
        0
 10
-0.5
 20
-0.4999999385409921
 30
0.0
 11
1.0
 21
0.0
 31
0.0
 12
0.0
 22
1.0
 32
0.0
 13
1.0
 23
1.0
340
0
 70
     4
280
     1
281
    50
282
    50
283
     0
360
0
 71
     2
 91
        5
 14
-0.5
 24
-0.4999999385409921
 14
0.5
 24
-0.4999999385409921
 14
0.5
 24
0.5
 14
-0.5
 24
0.5
 14
-0.5
 24
-0.4999999385409921
  0
MTEXT
  5
2D4
330
1F
100
AcDbEntity
  8
0-8 文字
 62
   251
100
AcDbMText
 10
1021.456962994652
 20
8329.500966690906
 30
0.0
 40
171.875
 41
0.0
 71
     1
 72
     1
  1
{\fＭＳ Ｐゴシック|b0|i0|c128|p0;\l①}
 73
     1
 44
0.8762322015334064
  0
WIPEOUT
  5
2D5
330
1F
100
AcDbEntity
  8
0-8 文字
  6
Continuous
 62
   251
370
     5
 92
      152
310
98000000040000000C0000000E000000120000000C00000016000000000000C20C00000014000000010000006C0000000700000004000000000000000000E0BF000000000000E03F0000000000000000000000000000E03F000000000000E03F0000000000000000000000000000E03FCC4602BEFFFFDFBF00000000000000
310
00000000000000E0BFCC4602BEFFFFDFBF0000000000000000
100
AcDbWipeout
 90
        0
 10
-0.5
 20
-0.4999999385409921
 30
0.0
 11
1.0
 21
0.0
 31
0.0
 12
0.0
 22
1.0
 32
0.0
 13
1.0
 23
1.0
340
0
 70
     4
280
     1
281
    50
282
    50
283
     0
360
0
 71
     2
 91
        5
 14
-0.5
 24
-0.4999999385409921
 14
0.5
 24
-0.4999999385409921
 14
0.5
 24
0.5
 14
-0.5
 24
0.5
 14
-0.5
 24
-0.4999999385409921
  0
MTEXT
  5
2D6
330
1F
100
AcDbEntity
  8
0-8 文字
 62
   251
100
AcDbMText
 10
2839.456646854412
 20
8329.500966690906
 30
0.0
 40
171.875
 41
0.0
 71
     1
 72
     1
  1
{\fＭＳ Ｐゴシック|b0|i0|c128|p0;\l②}
 73
     1
 44
0.8762322015334064
  0
WIPEOUT
  5
2D7
330
1F
100
AcDbEntity
  8
0-8 文字
  6
Continuous
 62
   251
370
     5
 92
      152
310
98000000040000000C0000000E000000120000000C00000016000000000000C20C00000014000000010000006C0000000700000004000000000000000000E0BF000000000000E03F0000000000000000000000000000E03F000000000000E03F0000000000000000000000000000E03FEC4602BEFFFFDFBF00000000000000
310
00000000000000E0BFEC4602BEFFFFDFBF0000000000000000
100
AcDbWipeout
 90
        0
 10
-0.5
 20
-0.4999999385409939
 30
0.0
 11
1.0
 21
0.0
 31
0.0
 12
0.0
 22
1.0
 32
0.0
 13
1.0
 23
1.0
340
0
 70
     4
280
     1
281
    50
282
    50
283
     0
360
0
 71
     2
 91
        5
 14
-0.5
 24
-0.4999999385409939
 14
0.5
 24
-0.4999999385409939
 14
0.5
 24
0.5
 14
-0.5
 24
0.5
 14
-0.5
 24
-0.4999999385409939
  0
MTEXT
  5
2D8
330
1F
100
AcDbEntity
  8
0-8 文字
 62
   251
100
AcDbMText
 10
4657.456330714171
 20
8329.500966690906
 30
0.0
 40
171.875
 41
0.0
 71
     1
 72
     1
  1
{\fＭＳ Ｐゴシック|b0|i0|c128|p0;\l③}
 73
     1
 44
0.8762322015334064
  0
WIPEOUT
  5
2D9
330
1F
100
AcDbEntity
  8
0-8 文字
  6
Continuous
 62
   251
370
     5
 92
      152
310
98000000040000000C0000000E000000120000000C00000016000000000000C20C00000014000000010000006C0000000700000004000000000000000000E0BF000000000000E03F0000000000000000000000000000E03F000000000000E03F0000000000000000000000000000E03FEC4602BEFFFFDFBF00000000000000
310
00000000000000E0BFEC4602BEFFFFDFBF0000000000000000
100
AcDbWipeout
 90
        0
 10
-0.5
 20
-0.4999999385409939
 30
0.0
 11
1.0
 21
0.0
 31
0.0
 12
0.0
 22
1.0
 32
0.0
 13
1.0
 23
1.0
340
0
 70
     4
280
     1
281
    50
282
    50
283
     0
360
0
 71
     2
 91
        5
 14
-0.5
 24
-0.4999999385409939
 14
0.5
 24
-0.4999999385409939
 14
0.5
 24
0.5
 14
-0.5
 24
0.5
 14
-0.5
 24
-0.4999999385409939
  0
MTEXT
  5
2DA
330
1F
100
AcDbEntity
  8
0-8 文字
 62
   251
100
AcDbMText
 10
6475.454777374869
 20
8329.500966690906
 30
0.0
 40
171.875
 41
0.0
 71
     1
 72
     1
  1
{\fＭＳ Ｐゴシック|b0|i0|c128|p0;\l④}
 73
     1
 44
0.8762322015334064
  0
WIPEOUT
  5
2DB
330
1F
100
AcDbEntity
  8
0-8 文字
  6
Continuous
 62
   251
370
     5
 92
      152
310
98000000040000000C0000000E000000120000000C00000016000000000000C20C00000014000000010000006C0000000700000004000000000000000000E0BF000000000000E03F0000000000000000000000000000E03F000000000000E03F0000000000000000000000000000E03FCC4602BEFFFFDFBF00000000000000
310
00000000000000E0BFCC4602BEFFFFDFBF0000000000000000
100
AcDbWipeout
 90
        0
 10
-0.5
 20
-0.4999999385409921
 30
0.0
 11
1.0
 21
0.0
 31
0.0
 12
0.0
 22
1.0
 32
0.0
 13
1.0
 23
1.0
340
0
 70
     4
280
     1
281
    50
282
    50
283
     0
360
0
 71
     2
 91
        5
 14
-0.5
 24
-0.4999999385409921
 14
0.5
 24
-0.4999999385409921
 14
0.5
 24
0.5
 14
-0.5
 24
0.5
 14
-0.5
 24
-0.4999999385409921
  0
MTEXT
  5
2DC
330
1F
100
AcDbEntity
  8
0-8 文字
 62
   251
100
AcDbMText
 10
-2614.542404724863
 20
8329.500966690906
 30
0.0
 40
171.875
 41
0.0
 71
     1
 72
     1
  1
{\fＭＳ Ｐゴシック|b0|i0|c128|p0;\l①}
 73
     1
 44
0.8762322015334064
  0
WIPEOUT
  5
2DD
330
1F
100
AcDbEntity
  8
0-8 文字
  6
Continuous
 62
   251
370
     5
 92
      152
310
98000000040000000C0000000E000000120000000C00000016000000000000C20C00000014000000010000006C0000000700000004000000000000000000E0BF000000000000E03F0000000000000000000000000000E03F000000000000E03F0000000000000000000000000000E03FEC4602BEFFFFDFBF00000000000000
310
00000000000000E0BFEC4602BEFFFFDFBF0000000000000000
100
AcDbWipeout
 90
        0
 10
-0.5
 20
-0.4999999385409939
 30
0.0
 11
1.0
 21
0.0
 31
0.0
 12
0.0
 22
1.0
 32
0.0
 13
1.0
 23
1.0
340
0
 70
     4
280
     1
281
    50
282
    50
283
     0
360
0
 71
     2
 91
        5
 14
-0.5
 24
-0.4999999385409939
 14
0.5
 24
-0.4999999385409939
 14
0.5
 24
0.5
 14
-0.5
 24
0.5
 14
-0.5
 24
-0.4999999385409939
  0
MTEXT
  5
2DE
330
1F
100
AcDbEntity
  8
0-8 文字
 62
   251
100
AcDbMText
 10
-4432.542088584621
 20
8329.500966690906
 30
0.0
 40
171.875
 41
0.0
 71
     1
 72
     1
  1
{\fＭＳ Ｐゴシック|b0|i0|c128|p0;\l②}
 73
     1
 44
0.8762322015334064
  0
WIPEOUT
  5
2DF
330
1F
100
AcDbEntity
  8
0-8 文字
  6
Continuous
 62
   251
370
     5
 92
      152
310
98000000040000000C0000000E000000120000000C00000016000000000000C20C00000014000000010000006C0000000700000004000000000000000000E0BF000000000000E03F0000000000000000000000000000E03F000000000000E03F0000000000000000000000000000E03FEC4602BEFFFFDFBF00000000000000
310
00000000000000E0BFEC4602BEFFFFDFBF0000000000000000
100
AcDbWipeout
 90
        0
 10
-0.5
 20
-0.4999999385409939
 30
0.0
 11
1.0
 21
0.0
 31
0.0
 12
0.0
 22
1.0
 32
0.0
 13
1.0
 23
1.0
340
0
 70
     4
280
     1
281
    50
282
    50
283
     0
360
0
 71
     2
 91
        5
 14
-0.5
 24
-0.4999999385409939
 14
0.5
 24
-0.4999999385409939
 14
0.5
 24
0.5
 14
-0.5
 24
0.5
 14
-0.5
 24
-0.4999999385409939
  0
MTEXT
  5
2E0
330
1F
100
AcDbEntity
  8
0-8 文字
 62
   251
100
AcDbMText
 10
-6250.541772444377
 20
8329.500966690906
 30
0.0
 40
171.875
 41
0.0
 71
     1
 72
     1
  1
{\fＭＳ Ｐゴシック|b0|i0|c128|p0;\l③}
 73
     1
 44
0.8762322015334064
  0
WIPEOUT
  5
2E1
330
1F
100
AcDbEntity
  8
0-8 文字
  6
Continuous
 62
   251
370
     5
 92
      152
310
98000000040000000C0000000E000000120000000C00000016000000000000C20C00000014000000010000006C0000000700000004000000000000000000E0BF000000000000E03F0000000000000000000000000000E03F000000000000E03F0000000000000000000000000000E03FEC4602BEFFFFDFBF00000000000000
310
00000000000000E0BFEC4602BEFFFFDFBF0000000000000000
100
AcDbWipeout
 90
        0
 10
-0.5
 20
-0.4999999385409939
 30
0.0
 11
1.0
 21
0.0
 31
0.0
 12
0.0
 22
1.0
 32
0.0
 13
1.0
 23
1.0
340
0
 70
     4
280
     1
281
    50
282
    50
283
     0
360
0
 71
     2
 91
        5
 14
-0.5
 24
-0.4999999385409939
 14
0.5
 24
-0.4999999385409939
 14
0.5
 24
0.5
 14
-0.5
 24
0.5
 14
-0.5
 24
-0.4999999385409939
  0
MTEXT
  5
2E2
330
1F
100
AcDbEntity
  8
0-8 文字
 62
   251
100
AcDbMText
 10
-8068.541456304135
 20
8329.500966690906
 30
0.0
 40
171.875
 41
0.0
 71
     1
 72
     1
  1
{\fＭＳ Ｐゴシック|b0|i0|c128|p0;\l④}
 73
     1
 44
0.8762322015334064
  0
WIPEOUT
  5
2E3
330
1F
100
AcDbEntity
  8
0-8 文字
  6
Continuous
 62
   251
370
     5
 92
      152
310
98000000040000000C0000000E000000120000000C00000016000000000000C20C00000014000000010000006C0000000700000004000000000000000000E0BF000000000000E03F00000000000000001C2A3B4C0080C03F000000000000E03F00000000000000001C2A3B4C0080C03F000000000000E0BF00000000000000
310
00000000000000E0BF000000000000E0BF0000000000000000
100
AcDbWipeout
 90
        0
 10
-0.5
 20
-0.5
 30
0.0
 11
1.0
 21
0.0
 31
0.0
 12
0.0
 22
1.0
 32
0.0
 13
1.0
 23
1.0
340
0
 70
     4
280
     1
281
    50
282
    50
283
     0
360
0
 71
     2
 91
        5
 14
-0.5
 24
-0.5
 14
0.1289062854978774
 24
-0.5
 14
0.1289062854978774
 24
0.5
 14
-0.5
 24
0.5
 14
-0.5
 24
-0.5
  0
MTEXT
  5
2E4
330
1F
100
AcDbEntity
  8
0-8 文字
 62
   251
100
AcDbMText
 10
-649.2842841255053
 20
8204.500966690906
 30
0.0
 40
171.875
 41
0.0
 71
     1
 72
     1
  1
{\fＭＳ Ｐゴシック|b0|i0|c128|p0;\lＬ}
 73
     1
 44
0.8762322015334064
  0
LINE
  5
2E5
330
1F
100
AcDbEntity
  8
0-9 ｾﾝﾀｰﾗｲﾝ
  6
破線の種類-5
 62
     7
370
     5
100
AcDbLine
 10
-2491.543551068632
 20
1780.726717476264
 30
0.0
 11
-2491.543551068632
 21
8380.730886053527
 31
0.0
  0
LINE
  5
2E6
330
1F
100
AcDbEntity
  8
0-9 ｾﾝﾀｰﾗｲﾝ
  6
破線の種類-5
 62
     7
370
     5
100
AcDbLine
 10
-4311.543551068632
 20
1780.726717476264
 30
0.0
 11
-4311.543551068632
 21
8380.730886053527
 31
0.0
  0
WIPEOUT
  5
2E7
330
1F
100
AcDbEntity
  8
0-8 文字
  6
Continuous
 62
   251
370
     5
 92
      152
310
98000000040000000C0000000E000000120000000C00000016000000000000C20C00000014000000010000006C0000000700000004000000000000000000E0BF000000000000E03F0000000000000000000000000100CF3F000000000000E03F0000000000000000000000000100CF3F000000000000E0BF00000000000000
310
00000000000000E0BF000000000000E0BF0000000000000000
100
AcDbWipeout
 90
        0
 10
-0.5
 20
-0.5
 30
0.0
 11
1.0
 21
0.0
 31
0.0
 12
0.0
 22
1.0
 32
0.0
 13
1.0
 23
1.0
340
0
 70
     4
280
     1
281
    50
282
    50
283
     0
360
0
 71
     2
 91
        5
 14
-0.5
 24
-0.5
 14
0.2421876192092896
 24
-0.5
 14
0.2421876192092896
 24
0.5
 14
-0.5
 24
0.5
 14
-0.5
 24
-0.5
  0
MTEXT
  5
2E8
330
1F
100
AcDbEntity
  8
0-8 文字
 62
   251
100
AcDbMText
 10
-731.5427182160104
 20
8357.239963583863
 30
0.0
 40
171.875
 41
0.0
 71
     1
 72
     1
  1
{\fＭＳ Ｐゴシック|b0|i0|c128|p0;\lＣ}
 73
     1
 44
0.8762322015334064
  0
LINE
  5
2E9
330
1F
100
AcDbEntity
  8
0-9 ｾﾝﾀｰﾗｲﾝ
  6
破線の種類-5
 62
     7
370
     5
100
AcDbLine
 10
-7943.542286507664
 20
3494.505871758905
 30
0.0
 11
6600.455184370401
 21
3494.505871758905
 31
0.0
  0
LINE
  5
2EA
330
1F
100
AcDbEntity
  8
0-9 ｾﾝﾀｰﾗｲﾝ
  6
破線の種類-5
 62
     7
370
     5
100
AcDbLine
 10
-7943.542286507664
 20
5314.505871758905
 30
0.0
 11
6600.455184370401
 21
5314.505871758905
 31
0.0
  0
LINE
  5
2EB
330
1F
100
AcDbEntity
  8
0-9 ｾﾝﾀｰﾗｲﾝ
  6
破線の種類-5
 62
     7
370
     5
100
AcDbLine
 10
-7943.542286507664
 20
7134.505871758909
 30
0.0
 11
6600.455184370401
 21
7134.505871758909
 31
0.0
  0
MTEXT
  5
2EC
330
1F
100
AcDbEntity
  8
0-1
 62
   251
100
AcDbMText
 10
-1128.164159830416
 20
-1351.985769834878
 30
0.0
 40
194.0277777777778
 41
0.0
 71
     1
 72
     1
  1
{\fＭＳ Ｐゴシック|b0|i0|c128|p0;\l昇降床１}
 73
     1
 44
0.8762322015334064
  0
MTEXT
  5
2ED
330
1F
100
AcDbEntity
  8
0-1
 62
   251
100
AcDbMText
 10
-5749.477735946421
 20
-1351.985769834878
 30
0.0
 40
194.0277777777778
 41
0.0
 71
     1
 72
     1
  1
{\fＭＳ Ｐゴシック|b0|i0|c128|p0;\l昇降床２（下）}
 73
     1
 44
0.8762322015334064
  0
MTEXT
  5
2EE
330
1F
100
AcDbEntity
  8
0-1
 62
   251
100
AcDbMText
 10
2850.522264053581
 20
-1351.732690359618
 30
0.0
 40
194.0277777777778
 41
0.0
 71
     1
 72
     1
  1
{\fＭＳ Ｐゴシック|b0|i0|c128|p0;\l昇降床２（上）}
 73
     1
 44
0.8762322015334064
  0
LINE
  5
2EF
330
1F
100
AcDbEntity
  8
0-2
  6
Continuous
 62
     7
370
     5
100
AcDbLine
 10
-6659.612206897119
 20
1786.72671747626
 30
0.0
 11
5329.724968077038
 21
1786.72671747626
 31
0.0
  0
LINE
  5
2F0
330
1F
100
AcDbEntity
  8
0-2
  6
Continuous
 62
     7
370
     5
100
AcDbLine
 10
-6659.612206897119
 20
1801.72671747626
 30
0.0
 11
5315.12046035439
 21
1801.72671747626
 31
0.0
  0
POLYLINE
  5
2F1
102
{ACAD_REACTORS
330
2F7
102
}
330
1F
100
AcDbEntity
  8
0-2
  6
Continuous
 62
     7
370
     5
100
AcDb2dPolyline
 66
     1
 10
0.0
 20
0.0
 30
0.0
 70
     5
 75
     5
  0
VERTEX
  5
2F2
330
2F1
100
AcDbEntity
  8
0-2
  6
Continuous
 62
     7
370
     5
100
AcDbVertex
100
AcDb2dVertex
 10
-6655.669483234765
 20
1801.72671747626
 30
0.0
  0
VERTEX
  5
2F3
330
2F1
100
AcDbEntity
  8
0-2
  6
Continuous
 62
     7
370
     5
100
AcDbVertex
100
AcDb2dVertex
 10
-6659.612206897119
 20
1786.72671747626
 30
0.0
  0
VERTEX
  5
2F4
330
2F1
100
AcDbEntity
  8
0-2
  6
Continuous
 62
     7
370
     5
100
AcDbVertex
100
AcDb2dVertex
 10
5319.063184016743
 20
1786.72671747626
 30
0.0
  0
VERTEX
  5
2F5
330
2F1
100
AcDbEntity
  8
0-2
  6
Continuous
 62
     7
370
     5
100
AcDbVertex
100
AcDb2dVertex
 10
5315.12046035439
 20
1801.72671747626
 30
0.0
  0
SEQEND
  5
2F6
330
2F1
100
AcDbEntity
  8
0-2
  6
Continuous
 62
     7
370
     5
  0
HATCH
  5
2F7
330
1F
100
AcDbEntity
  8
0-2
  6
Continuous
 62
   253
370
     0
100
AcDbHatch
 10
0.0
 20
0.0
 30
0.0
210
0.0
220
0.0
230
1.0
  2
SOLID
 70
     1
 71
     1
 91
        1
 92
        1
 93
        4
 72
     1
 10
-6655.669483234765
 20
1801.72671747626
 11
-6659.612206897119
 21
1786.72671747626
 72
     1
 10
-6659.612206897119
 20
1786.72671747626
 11
5319.063184016742
 21
1786.72671747626
 72
     1
 10
5319.063184016743
 20
1786.72671747626
 11
5315.12046035439
 21
1801.72671747626
 72
     1
 10
5315.12046035439
 20
1801.72671747626
 11
-6655.669483234766
 21
1801.72671747626
 97
        1
330
2F1
 75
     0
 76
     1
 98
        1
 10
0.0
 20
0.0
  0
LINE
  5
2F8
330
1F
100
AcDbEntity
  8
0-2
  6
破線の種類-5
 62
     7
370
     5
100
AcDbLine
 10
-9828.458355908742
 20
5662.290564109098
 30
0.0
 11
-12421.19209094485
 21
5662.290564109098
 31
0.0
  0
LINE
  5
2F9
330
1F
100
AcDbEntity
  8
0-2
  6
Continuous
 62
     7
370
     5
100
AcDbLine
 10
-11124.82522342679
 20
5662.290564109098
 30
0.0
 11
-11124.82522342679
 21
4158.572985692779
 31
0.0
  0
POLYLINE
  5
2FA
102
{ACAD_REACTORS
330
2FF
102
}
330
1F
100
AcDbEntity
  8
0-2
  6
Continuous
 62
     7
370
     5
100
AcDb2dPolyline
 66
     1
 10
0.0
 20
0.0
 30
0.0
 70
     5
 75
     5
  0
VERTEX
  5
2FB
330
2FA
100
AcDbEntity
  8
0-2
  6
Continuous
 62
     7
370
     5
100
AcDbVertex
100
AcDb2dVertex
 10
-11039.75135482991
 20
4476.072985692779
 30
0.0
  0
VERTEX
  5
2FC
330
2FA
100
AcDbEntity
  8
0-2
  6
Continuous
 62
     7
370
     5
100
AcDbVertex
100
AcDb2dVertex
 10
-11124.82522342679
 20
4158.572985692779
 30
0.0
  0
VERTEX
  5
2FD
330
2FA
100
AcDbEntity
  8
0-2
  6
Continuous
 62
     7
370
     5
100
AcDbVertex
100
AcDb2dVertex
 10
-11209.89909202368
 20
4476.072985692779
 30
0.0
  0
SEQEND
  5
2FE
330
2FA
100
AcDbEntity
  8
0-2
  6
Continuous
 62
     7
370
     5
  0
HATCH
  5
2FF
330
1F
100
AcDbEntity
  8
0-2
  6
Continuous
 62
     7
370
     0
100
AcDbHatch
 10
0.0
 20
0.0
 30
0.0
210
0.0
220
0.0
230
1.0
  2
SOLID
 70
     1
 71
     1
 91
        1
 92
        1
 93
        3
 72
     1
 10
-11039.75135482991
 20
4476.072985692779
 11
-11124.82522342679
 21
4158.572985692779
 72
     1
 10
-11124.82522342679
 20
4158.572985692779
 11
-11209.89909202368
 21
4476.072985692779
 72
     1
 10
-11209.89909202368
 20
4476.072985692779
 11
-11039.75135482991
 21
4476.072985692779
 97
        1
330
2FA
 75
     0
 76
     1
 98
        1
 10
0.0
 20
0.0
  0
INSERT
  5
300
330
1F
100
AcDbEntity
  8
0-2
 62
   253
100
AcDbBlockReference
  2
グループ-6
 10
0.0
 20
0.0
 30
0.0
  0
INSERT
  5
301
330
1F
100
AcDbEntity
  8
0-2
 62
   253
100
AcDbBlockReference
  2
グループ-7
 10
0.0
 20
0.0
 30
0.0
  0
INSERT
  5
302
330
1F
100
AcDbEntity
  8
0-2
 62
     7
100
AcDbBlockReference
  2
グループ-8
 10
0.0
 20
0.0
 30
0.0
  0
DIMENSION
  5
303
330
1F
100
AcDbEntity
  8
寸法
  6
Continuous
 62
     7
370
     5
100
AcDbDimension
  2
*D15
 10
7041.455184370401
 20
1780.726717476264
 30
0.0
 11
7341.455184370471
 21
4593.526579785703
 31
0.0
 70
   160
 71
     5
 42
6000.0
  3
SIA
100
AcDbAlignedDimension
 13
7902.078106983169
 23
7780.726717476264
 33
0.0
 14
4897.454042752519
 24
1780.726717476264
 34
0.0
 50
-90.0
100
AcDbRotatedDimension
1001
ACAD
1000
DSTYLE
1002
{
1070
   147
1040
300.00000000007
1070
   340
1005
75
1070
   279
1070
     2
1002
}
  0
POLYLINE
  5
304
330
1F
100
AcDbEntity
  8
0-2
  6
Continuous
 62
     7
370
    13
100
AcDb2dPolyline
 66
     1
 10
0.0
 20
0.0
 30
0.0
 70
     5
 75
     5
  0
VERTEX
  5
305
330
304
100
AcDbEntity
  8
0-2
  6
Continuous
 62
     7
370
    13
100
AcDbVertex
100
AcDb2dVertex
 10
-3170.273990957412
 20
1780.726717476264
 30
0.0
  0
VERTEX
  5
306
330
304
100
AcDbEntity
  8
0-2
  6
Continuous
 62
     7
370
    13
100
AcDbVertex
100
AcDb2dVertex
 10
1829.724968077036
 20
1780.726717476264
 30
0.0
  0
VERTEX
  5
307
330
304
100
AcDbEntity
  8
0-2
  6
Continuous
 62
     7
370
    13
100
AcDbVertex
100
AcDb2dVertex
 10
1829.724968077036
 20
-3759.273282523736
 30
0.0
  0
VERTEX
  5
308
330
304
100
AcDbEntity
  8
0-2
  6
Continuous
 62
     7
370
    13
100
AcDbVertex
100
AcDb2dVertex
 10
-3170.273990957412
 20
-3759.273282523736
 30
0.0
  0
SEQEND
  5
309
330
304
100
AcDbEntity
  8
0-2
  6
Continuous
 62
     7
370
    13
  0
POLYLINE
  5
30A
330
1F
100
AcDbEntity
  8
0-2
  6
Continuous
 62
     7
370
    13
100
AcDb2dPolyline
 66
     1
 10
0.0
 20
0.0
 30
0.0
 70
     5
 75
     5
  0
VERTEX
  5
30B
330
30A
100
AcDbEntity
  8
0-2
  6
Continuous
 62
     7
370
    13
100
AcDbVertex
100
AcDb2dVertex
 10
-6670.273990957413
 20
1780.726717476264
 30
0.0
  0
VERTEX
  5
30C
330
30A
100
AcDbEntity
  8
0-2
  6
Continuous
 62
     7
370
    13
100
AcDbVertex
100
AcDb2dVertex
 10
-3170.273990957413
 20
1780.726717476264
 30
0.0
  0
VERTEX
  5
30D
330
30A
100
AcDbEntity
  8
0-2
  6
Continuous
 62
     7
370
    13
100
AcDbVertex
100
AcDb2dVertex
 10
-3170.273990957413
 20
-3759.273282523736
 30
0.0
  0
VERTEX
  5
30E
330
30A
100
AcDbEntity
  8
0-2
  6
Continuous
 62
     7
370
    13
100
AcDbVertex
100
AcDb2dVertex
 10
-6670.273990957413
 20
-3759.273282523736
 30
0.0
  0
SEQEND
  5
30F
330
30A
100
AcDbEntity
  8
0-2
  6
Continuous
 62
     7
370
    13
  0
INSERT
  5
310
330
1F
100
AcDbEntity
  8
0-2
 62
     7
100
AcDbBlockReference
  2
グループ-9
 10
0.0
 20
0.0
 30
0.0
  0
INSERT
  5
311
330
1F
100
AcDbEntity
  8
0-2
 62
   251
100
AcDbBlockReference
  2
グループ-12
 10
0.0
 20
0.0
 30
0.0
  0
WIPEOUT
  5
312
330
1F
100
AcDbEntity
  8
0-2
  6
Continuous
 62
   251
370
     5
 92
      152
310
98000000040000000C0000000E000000120000000C00000016000000000000C20C00000014000000010000006C0000000700000004000000000000000000E0BF000000000000E03F0000000000000000000000000000E03F000000000000E03F0000000000000000000000000000E03FD03DBAC75E19CB3F00000000000000
310
00000000000000E0BFD03DBAC75E19CB3F0000000000000000
100
AcDbWipeout
 90
        0
 10
-0.5
 20
0.2117117381317102
 30
0.0
 11
1.0
 21
0.0
 31
0.0
 12
0.0
 22
1.0
 32
0.0
 13
1.0
 23
1.0
340
0
 70
     4
280
     1
281
    50
282
    50
283
     0
360
0
 71
     2
 91
        5
 14
-0.5
 24
0.2117117381317102
 14
0.5
 24
0.2117117381317102
 14
0.5
 24
0.5
 14
-0.5
 24
0.5
 14
-0.5
 24
0.2117117381317102
  0
MTEXT
  5
313
330
1F
100
AcDbEntity
  8
0-2
 62
   251
100
AcDbMText
 10
9585.19216060944
 20
1865.082321712208
 30
0.0
 40
145.5208333333333
 41
0.0
 71
     1
 72
     1
  1
{\fＭＳ Ｐゴシック|b0|i0|c128|p0;\lピアノ庫}
 73
     1
 44
0.8762322015334064
  0
WIPEOUT
  5
314
330
1F
100
AcDbEntity
  8
0-2
  6
Continuous
 62
   251
370
     5
 92
      152
310
98000000040000000C0000000E000000120000000C00000016000000000000C20C00000014000000010000006C0000000700000004000000000000000000E0BF000000000000E03F0000000000000000000000000000E03F000000000000E03F0000000000000000000000000000E03FCC2642D0DC9ECF3F00000000000000
310
00000000000000E0BFCC2642D0DC9ECF3F0000000000000000
100
AcDbWipeout
 90
        0
 10
-0.5
 20
0.2470356003653279
 30
0.0
 11
1.0
 21
0.0
 31
0.0
 12
0.0
 22
1.0
 32
0.0
 13
1.0
 23
1.0
340
0
 70
     4
280
     1
281
    50
282
    50
283
     0
360
0
 71
     2
 91
        5
 14
-0.5
 24
0.2470356003653279
 14
0.5
 24
0.2470356003653279
 14
0.5
 24
0.5
 14
-0.5
 24
0.5
 14
-0.5
 24
0.2470356003653279
  0
MTEXT
  5
315
330
1F
100
AcDbEntity
  8
0-2
 62
   251
100
AcDbMText
 10
9875.19216060944
 20
655.548563734555
 30
0.0
 40
192.321124166131
 41
0.0
 71
     1
 72
     1
  1
{\fＭＳ Ｐゴシック|b0|i0|c128|p0;\lｽﾀｲﾝｳｪｲ}
 73
     1
 44
0.8762322015334064
  0
WIPEOUT
  5
316
330
1F
100
AcDbEntity
  8
0-2
  6
Continuous
 62
   251
370
     5
 92
      152
310
98000000040000000C0000000E000000120000000C00000016000000000000C20C00000014000000010000006C0000000700000004000000000000000000E0BF000000000000E03F0000000000000000000000000000E03F000000000000E03F0000000000000000000000000000E03FA0E60824262E99BF00000000000000
310
00000000000000E0BFA0E60824262E99BF0000000000000000
100
AcDbWipeout
 90
        0
 10
-0.5
 20
-0.0245901069158437
 30
0.0
 11
1.0
 21
0.0
 31
0.0
 12
0.0
 22
1.0
 32
0.0
 13
1.0
 23
1.0
340
0
 70
     4
280
     1
281
    50
282
    50
283
     0
360
0
 71
     2
 91
        5
 14
-0.5
 24
-0.0245901069158437
 14
0.5
 24
-0.0245901069158437
 14
0.5
 24
0.5
 14
-0.5
 24
0.5
 14
-0.5
 24
-0.0245901069158437
  0
MTEXT
  5
317
330
1F
100
AcDbEntity
  8
0-2
 62
   251
100
AcDbMText
 10
8402.34368814668
 20
-547.0812920363828
 30
0.0
 40
192.321124166131
 41
0.0
 71
     1
 72
     1
  1
{\fＭＳ Ｐゴシック|b0|i0|c128|p0;\lﾔﾏﾊ}
 73
     1
 44
0.8762322015334064
  0
WIPEOUT
  5
318
330
1F
100
AcDbEntity
  8
0-2
  6
Continuous
 62
   251
370
     5
 92
      152
310
98000000040000000C0000000E000000120000000C00000016000000000000C20C00000014000000010000006C0000000700000004000000210D703131DCBE407F2F3F4DE4C69A4000000000000000009006B898184FC0407F2F3F4DE4C69A4000000000000000009006B898184FC0407F2F3F4DE4BE934000000000000000
310
00210D703131DCBE407F2F3F4DE4BE93400000000000000000
100
AcDbWipeout
 90
        0
 10
7900.192160609441
 20
1263.722950923227
 30
0.0
 11
450.0
 21
0.0
 31
0.0
 12
0.0
 22
450.0
 32
0.0
 13
1.0
 23
1.0
340
0
 70
     4
280
     1
281
    50
282
    50
283
     0
360
0
 71
     2
 91
        5
 14
-0.5
 24
-0.4999999999999996
 14
0.4999999999999964
 24
-0.4999999999999996
 14
0.4999999999999964
 24
0.5000000000000004
 14
-0.5
 24
0.5000000000000004
 14
-0.5
 24
-0.4999999999999996
  0
POLYLINE
  5
319
330
1F
100
AcDbEntity
  8
0-2
  6
Continuous
 62
   251
370
     5
100
AcDb2dPolyline
 66
     1
 10
0.0
 20
0.0
 30
0.0
 70
     5
 75
     5
  0
VERTEX
  5
31A
330
319
100
AcDbEntity
  8
0-2
  6
Continuous
 62
   251
370
     5
100
AcDbVertex
100
AcDb2dVertex
 10
7900.192160609441
 20
1713.722950923227
 30
0.0
  0
VERTEX
  5
31B
330
319
100
AcDbEntity
  8
0-2
  6
Continuous
 62
   251
370
     5
100
AcDbVertex
100
AcDb2dVertex
 10
8350.19216060944
 20
1713.722950923227
 30
0.0
  0
VERTEX
  5
31C
330
319
100
AcDbEntity
  8
0-2
  6
Continuous
 62
   251
370
     5
100
AcDbVertex
100
AcDb2dVertex
 10
8350.19216060944
 20
1263.722950923227
 30
0.0
  0
VERTEX
  5
31D
330
319
100
AcDbEntity
  8
0-2
  6
Continuous
 62
   251
370
     5
100
AcDbVertex
100
AcDb2dVertex
 10
7900.192160609441
 20
1263.722950923227
 30
0.0
  0
SEQEND
  5
31E
330
319
100
AcDbEntity
  8
0-2
  6
Continuous
 62
   251
370
     5
  0
WIPEOUT
  5
31F
330
1F
100
AcDbEntity
  8
0-2
  6
Continuous
 62
   251
370
     5
 92
      152
310
98000000040000000C0000000E000000120000000C00000016000000000000C20C00000014000000010000006C0000000700000004000000210D703131F5BE407F2F3F4DE4629A4000000000000000009006B8989842C0407F2F3F4DE4629A4000000000000000009006B8989842C040802F3F4DE422944000000000000000
310
00210D703131F5BE40802F3F4DE42294400000000000000000
100
AcDbWipeout
 90
        0
 10
7925.192160609441
 20
1288.722950923227
 30
0.0
 11
400.0
 21
0.0
 31
0.0
 12
0.0
 22
400.0
 32
0.0
 13
1.0
 23
1.0
340
0
 70
     4
280
     1
281
    50
282
    50
283
     0
360
0
 71
     2
 91
        5
 14
-0.5
 24
-0.4999999999999996
 14
0.4999999999999964
 24
-0.4999999999999996
 14
0.4999999999999964
 24
0.5
 14
-0.5
 24
0.5
 14
-0.5
 24
-0.4999999999999996
  0
POLYLINE
  5
320
330
1F
100
AcDbEntity
  8
0-2
  6
Continuous
 62
   251
370
     5
100
AcDb2dPolyline
 66
     1
 10
0.0
 20
0.0
 30
0.0
 70
     5
 75
     5
  0
VERTEX
  5
321
330
320
100
AcDbEntity
  8
0-2
  6
Continuous
 62
   251
370
     5
100
AcDbVertex
100
AcDb2dVertex
 10
7925.192160609441
 20
1688.722950923227
 30
0.0
  0
VERTEX
  5
322
330
320
100
AcDbEntity
  8
0-2
  6
Continuous
 62
   251
370
     5
100
AcDbVertex
100
AcDb2dVertex
 10
8325.19216060944
 20
1688.722950923227
 30
0.0
  0
VERTEX
  5
323
330
320
100
AcDbEntity
  8
0-2
  6
Continuous
 62
   251
370
     5
100
AcDbVertex
100
AcDb2dVertex
 10
8325.19216060944
 20
1288.722950923227
 30
0.0
  0
VERTEX
  5
324
330
320
100
AcDbEntity
  8
0-2
  6
Continuous
 62
   251
370
     5
100
AcDbVertex
100
AcDb2dVertex
 10
7925.192160609441
 20
1288.722950923227
 30
0.0
  0
SEQEND
  5
325
330
320
100
AcDbEntity
  8
0-2
  6
Continuous
 62
   251
370
     5
  0
WIPEOUT
  5
326
330
1F
100
AcDbEntity
  8
0-2
  6
Continuous
 62
   251
370
     5
 92
      152
310
98000000040000000C0000000E000000120000000C00000016000000000000C20C00000014000000010000006C0000000700000004000000000000000000E0BF000000000000E03F0000000000000000000000000000E03F000000000000E03F0000000000000000000000000000E03F52E3388E5555C53F00000000000000
310
00000000000000E0BF52E3388E5555C53F0000000000000000
100
AcDbWipeout
 90
        0
 10
-0.5
 20
0.1666666931576182
 30
0.0
 11
1.0
 21
0.0
 31
0.0
 12
0.0
 22
1.0
 32
0.0
 13
1.0
 23
1.0
340
0
 70
     4
280
     1
281
    50
282
    50
283
     0
360
0
 71
     2
 91
        5
 14
-0.5
 24
0.1666666931576182
 14
0.5
 24
0.1666666931576182
 14
0.5
 24
0.4999999999999999
 14
-0.5
 24
0.4999999999999999
 14
-0.5
 24
0.1666666931576182
  0
MTEXT
  5
327
330
1F
100
AcDbEntity
  8
0-2
 62
   251
100
AcDbMText
 10
7913.525493942773
 20
1534.936839812117
 30
0.0
 40
97.01388888888889
 41
0.0
 71
     1
 72
     1
  1
{\fＭＳ Ｐゴシック|b0|i0|c128|p0;\l除湿器}
 73
     1
 44
0.8762322015334064
  0
WIPEOUT
  5
328
330
1F
100
AcDbEntity
  8
0-2
  6
Continuous
 62
     7
370
     5
 92
      152
310
98000000040000000C0000000E000000120000000C00000016000000000000C20C00000014000000010000006C0000000700000004000000000000000000E0BF000000000000E03F0000000000000000000000000000E03F000000000000E03F0000000000000000000000000000E03F80E44DB3A10DBF3F00000000000000
310
00000000000000E0BF80E44DB3A10DBF3F0000000000000000
100
AcDbWipeout
 90
        0
 10
-0.5
 20
0.1213017523531494
 30
0.0
 11
1.0
 21
0.0
 31
0.0
 12
0.0
 22
1.0
 32
0.0
 13
1.0
 23
1.0
340
0
 70
     4
280
     1
281
    50
282
    50
283
     0
360
0
 71
     2
 91
        5
 14
-0.5
 24
0.1213017523531494
 14
0.5
 24
0.1213017523531494
 14
0.5
 24
0.5
 14
-0.5
 24
0.5
 14
-0.5
 24
0.1213017523531494
  0
MTEXT
  5
329
330
1F
100
AcDbEntity
  8
0-2
 62
     7
100
AcDbMText
 10
7535.192160609441
 20
5867.210450923228
 30
0.0
 40
145.5208333333333
 41
0.0
 71
     1
 72
     1
  1
{\fＭＳ Ｐゴシック|b0|i0|c128|p0;\l切替8回路\PUH未使用時}
 73
     1
 44
0.8762322015334064
  0
POLYLINE
  5
32A
330
1F
100
AcDbEntity
  8
0-2
  6
Continuous
 62
     7
370
    13
100
AcDb2dPolyline
 66
     1
 10
0.0
 20
0.0
 30
0.0
 70
     5
 75
     5
  0
VERTEX
  5
32B
330
32A
100
AcDbEntity
  8
0-2
  6
Continuous
 62
     7
370
    13
100
AcDbVertex
100
AcDb2dVertex
 10
1830.248619988909
 20
1780.726717476264
 30
0.0
  0
VERTEX
  5
32C
330
32A
100
AcDbEntity
  8
0-2
  6
Continuous
 62
     7
370
    13
100
AcDbVertex
100
AcDb2dVertex
 10
5330.248619988909
 20
1780.726717476264
 30
0.0
  0
VERTEX
  5
32D
330
32A
100
AcDbEntity
  8
0-2
  6
Continuous
 62
     7
370
    13
100
AcDbVertex
100
AcDb2dVertex
 10
5330.248619988909
 20
-3759.273282523736
 30
0.0
  0
VERTEX
  5
32E
330
32A
100
AcDbEntity
  8
0-2
  6
Continuous
 62
     7
370
    13
100
AcDbVertex
100
AcDb2dVertex
 10
1830.248619988909
 20
-3759.273282523736
 30
0.0
  0
SEQEND
  5
32F
330
32A
100
AcDbEntity
  8
0-2
  6
Continuous
 62
     7
370
    13
  0
SOLID
  5
330
330
1F
100
AcDbEntity
  8
0-2
  6
Continuous
 62
     7
370
     5
100
AcDbTrace
 10
11330.16697643209
 20
-4207.175846758729
 30
0.0
 11
11530.16762762494
 21
-4207.175846758729
 31
0.0
 12
11330.16697643209
 22
-3621.545197457507
 32
0.0
 13
11530.16762762494
 23
-3621.545197457507
 33
0.0
  0
VIEWPORT
  5
331
330
1B
100
AcDbEntity
 67
     1
  8
0
100
AcDbViewport
 10
128.5
 20
97.5
 30
0.0
 40
314.226
 41
222.18
 68
     1
 69
     1
 12
128.5
 22
97.5
 13
0.0
 23
0.0
 14
10.0
 24
10.0
 15
10.0
 25
10.0
 16
0.0
 26
0.0
 36
1.0
 17
0.0
 27
0.0
 37
0.0
 42
50.0
 43
0.0
 44
0.0
 45
222.18
 50
0.0
 51
0.0
 72
   100
 90
   557152
  1

281
     0
 71
     1
 74
     0
110
0.0
120
0.0
130
0.0
111
1.0
121
0.0
131
0.0
112
0.0
122
1.0
132
0.0
 79
     0
146
0.0
  0
ENDSEC
  0
SECTION
  2
OBJECTS
  0
DICTIONARY
  5
C
330
0
100
AcDbDictionary
281
     1
  3
ACAD_GROUP
350
D
  3
ACAD_LAYOUT
350
1A
  3
ACAD_MLEADERSTYLE
350
334
  3
ACAD_MLINESTYLE
350
17
  3
ACAD_PLOTSETTINGS
350
19
  3
ACAD_PLOTSTYLENAME
350
E
  3
ACAD_SCALELIST
350
B0
  3
ACAD_VISUALSTYLE
350
2A
  3
ACAD_WIPEOUT_VARS
350
74
  3
AcDbVariableDictionary
350
332
  0
DICTIONARY
  5
D
102
{ACAD_REACTORS
330
C
102
}
330
C
100
AcDbDictionary
281
     1
  0
DICTIONARY
  5
1A
102
{ACAD_REACTORS
330
C
102
}
330
C
100
AcDbDictionary
281
     1
  3
Layout1
350
1E
  3
Model
350
22
  0
DICTIONARY
  5
334
102
{ACAD_REACTORS
330
C
102
}
330
C
100
AcDbDictionary
281
     1
  0
DICTIONARY
  5
17
102
{ACAD_REACTORS
330
C
102
}
330
C
100
AcDbDictionary
281
     1
  3
Standard
350
18
  0
DICTIONARY
  5
19
102
{ACAD_REACTORS
330
C
102
}
330
C
100
AcDbDictionary
281
     1
  0
ACDBDICTIONARYWDFLT
  5
E
102
{ACAD_REACTORS
330
C
102
}
330
C
100
AcDbDictionary
281
     1
  3
Normal
350
F
100
AcDbDictionaryWithDefault
340
F
  0
DICTIONARY
  5
B0
102
{ACAD_REACTORS
330
C
102
}
330
C
100
AcDbDictionary
281
     1
  3
A0
350
B1
  3
A1
350
B2
  3
A2
350
B3
  3
A3
350
B4
  3
A4
350
B5
  3
A5
350
B6
  3
A6
350
B7
  3
A7
350
B8
  3
A8
350
B9
  3
A9
350
BA
  3
B0
350
BB
  3
B1
350
BC
  3
B2
350
BD
  3
B3
350
BE
  3
B4
350
BF
  3
B5
350
C0
  3
B6
350
C1
  3
B7
350
C2
  3
B8
350
C3
  3
B9
350
C4
  3
C0
350
C5
  3
C1
350
C6
  3
C2
350
C7
  3
C3
350
C8
  3
C4
350
C9
  3
C5
350
CA
  3
C6
350
CB
  3
C7
350
CC
  3
C8
350
CD
  3
C9
350
CE
  3
D0
350
CF
  3
D1
350
D0
  3
D2
350
D1
  0
DICTIONARY
  5
2A
102
{ACAD_REACTORS
330
C
102
}
330
C
100
AcDbDictionary
281
     1
  3
2dWireframe
350
2F
  3
3D Hidden
350
31
  3
3dWireframe
350
30
  3
Basic
350
32
  3
Brighten
350
36
  3
ColorChange
350
3A
  3
Conceptual
350
34
  3
Dim
350
35
  3
Facepattern
350
39
  3
Flat
350
2B
  3
FlatWithEdges
350
2C
  3
Gouraud
350
2D
  3
GouraudWithEdges
350
2E
  3
Linepattern
350
38
  3
Realistic
350
33
  3
Thicken
350
37
  0
WIPEOUTVARIABLES
  5
74
102
{ACAD_REACTORS
330
C
102
}
330
C
100
AcDbWipeoutVariables
 70
     0
  0
DICTIONARY
  5
332
102
{ACAD_REACTORS
330
C
102
}
330
C
100
AcDbDictionary
281
     1
  3
CANNOSCALE
350
335
  0
LAYOUT
  5
1E
102
{ACAD_REACTORS
330
1A
102
}
330
1A
100
AcDbPlotSettings
  1

  2
none_device
  4
ISO_A4_(210.00_x_297.00_MM)
  6

 40
7.5
 41
20.0
 42
7.5
 43
20.0
 44
210.0
 45
297.0
 46
0.0
 47
0.0
 48
0.0
 49
0.0
140
0.0
141
0.0
142
1.0
143
1.0
 70
   688
 72
     1
 73
     1
 74
     5
  7

 75
    16
147
1.0
148
0.0
149
0.0
100
AcDbLayout
  1
Layout1
 70
     1
 71
     1
 10
-20.0
 20
-7.5
 11
277.0
 21
202.5
 12
0.0
 22
0.0
 32
0.0
 14
1.000000000000000E+20
 24
1.000000000000000E+20
 34
1.000000000000000E+20
 15
-1.000000000000000E+20
 25
-1.000000000000000E+20
 35
-1.000000000000000E+20
146
0.0
 13
0.0
 23
0.0
 33
0.0
 16
1.0
 26
0.0
 36
0.0
 17
0.0
 27
1.0
 37
0.0
 76
     0
330
1B
331
331
  0
LAYOUT
  5
22
102
{ACAD_REACTORS
330
1A
102
}
330
1A
100
AcDbPlotSettings
  1

  2
none_device
  4

  6

 40
0.0
 41
0.0
 42
0.0
 43
0.0
 44
0.0
 45
0.0
 46
0.0
 47
0.0
 48
0.0
 49
0.0
140
0.0
141
0.0
142
1.0
143
1.0
 70
  1712
 72
     0
 73
     0
 74
     0
  7

 75
     0
147
1.0
148
0.0
149
0.0
100
AcDbLayout
  1
Model
 70
     1
 71
     0
 10
0.0
 20
0.0
 11
12.0
 21
9.0
 12
0.0
 22
0.0
 32
0.0
 14
-13321.19007251644
 24
-8825.043110873597
 34
-148.5
 15
13350.90647020285
 25
9169.684096803885
 35
148.5
146
0.0
 13
0.0
 23
0.0
 33
0.0
 16
1.0
 26
0.0
 36
0.0
 17
0.0
 27
1.0
 37
0.0
 76
     0
330
1F
331
29
  0
MLINESTYLE
  5
18
102
{ACAD_REACTORS
330
17
102
}
330
17
100
AcDbMlineStyle
  2
Standard
 70
     0
  3

 62
   256
 51
90.0
 52
90.0
 71
     2
 49
0.5
 62
   256
  6
BYLAYER
 49
-0.5
 62
   256
  6
BYLAYER
  0
ACDBPLACEHOLDER
  5
F
102
{ACAD_REACTORS
330
E
102
}
330
E
  0
SCALE
  5
B1
102
{ACAD_REACTORS
330
B0
102
}
330
B0
100
AcDbScale
 70
     0
300
1:1
140
1.0
141
1.0
290
     1
  0
SCALE
  5
B2
102
{ACAD_REACTORS
330
B0
102
}
330
B0
100
AcDbScale
 70
     0
300
1:2
140
1.0
141
2.0
290
     0
  0
SCALE
  5
B3
102
{ACAD_REACTORS
330
B0
102
}
330
B0
100
AcDbScale
 70
     0
300
1:4
140
1.0
141
4.0
290
     0
  0
SCALE
  5
B4
102
{ACAD_REACTORS
330
B0
102
}
330
B0
100
AcDbScale
 70
     0
300
1:5
140
1.0
141
5.0
290
     0
  0
SCALE
  5
B5
102
{ACAD_REACTORS
330
B0
102
}
330
B0
100
AcDbScale
 70
     0
300
1:8
140
1.0
141
8.0
290
     0
  0
SCALE
  5
B6
102
{ACAD_REACTORS
330
B0
102
}
330
B0
100
AcDbScale
 70
     0
300
1:10
140
1.0
141
10.0
290
     0
  0
SCALE
  5
B7
102
{ACAD_REACTORS
330
B0
102
}
330
B0
100
AcDbScale
 70
     0
300
1:16
140
1.0
141
16.0
290
     0
  0
SCALE
  5
B8
102
{ACAD_REACTORS
330
B0
102
}
330
B0
100
AcDbScale
 70
     0
300
1:20
140
1.0
141
20.0
290
     0
  0
SCALE
  5
B9
102
{ACAD_REACTORS
330
B0
102
}
330
B0
100
AcDbScale
 70
     0
300
1:30
140
1.0
141
30.0
290
     0
  0
SCALE
  5
BA
102
{ACAD_REACTORS
330
B0
102
}
330
B0
100
AcDbScale
 70
     0
300
1:40
140
1.0
141
40.0
290
     0
  0
SCALE
  5
BB
102
{ACAD_REACTORS
330
B0
102
}
330
B0
100
AcDbScale
 70
     0
300
1:50
140
1.0
141
50.0
290
     0
  0
SCALE
  5
BC
102
{ACAD_REACTORS
330
B0
102
}
330
B0
100
AcDbScale
 70
     0
300
1:100
140
1.0
141
100.0
290
     0
  0
SCALE
  5
BD
102
{ACAD_REACTORS
330
B0
102
}
330
B0
100
AcDbScale
 70
     0
300
2:1
140
2.0
141
1.0
290
     0
  0
SCALE
  5
BE
102
{ACAD_REACTORS
330
B0
102
}
330
B0
100
AcDbScale
 70
     0
300
4:1
140
4.0
141
1.0
290
     0
  0
SCALE
  5
BF
102
{ACAD_REACTORS
330
B0
102
}
330
B0
100
AcDbScale
 70
     0
300
8:1
140
8.0
141
1.0
290
     0
  0
SCALE
  5
C0
102
{ACAD_REACTORS
330
B0
102
}
330
B0
100
AcDbScale
 70
     0
300
10:1
140
10.0
141
1.0
290
     0
  0
SCALE
  5
C1
102
{ACAD_REACTORS
330
B0
102
}
330
B0
100
AcDbScale
 70
     0
300
100:1
140
100.0
141
1.0
290
     0
  0
SCALE
  5
C2
102
{ACAD_REACTORS
330
B0
102
}
330
B0
100
AcDbScale
 70
     0
300
1/128" = 1'-0"
140
0.0078125
141
12.0
290
     0
  0
SCALE
  5
C3
102
{ACAD_REACTORS
330
B0
102
}
330
B0
100
AcDbScale
 70
     0
300
1/64" = 1'-0"
140
0.015625
141
12.0
290
     0
  0
SCALE
  5
C4
102
{ACAD_REACTORS
330
B0
102
}
330
B0
100
AcDbScale
 70
     0
300
1/32" = 1'-0"
140
0.03125
141
12.0
290
     0
  0
SCALE
  5
C5
102
{ACAD_REACTORS
330
B0
102
}
330
B0
100
AcDbScale
 70
     0
300
1/16" = 1'-0"
140
0.0625
141
12.0
290
     0
  0
SCALE
  5
C6
102
{ACAD_REACTORS
330
B0
102
}
330
B0
100
AcDbScale
 70
     0
300
3/32" = 1'-0"
140
0.09375
141
12.0
290
     0
  0
SCALE
  5
C7
102
{ACAD_REACTORS
330
B0
102
}
330
B0
100
AcDbScale
 70
     0
300
1/8" = 1'-0"
140
0.125
141
12.0
290
     0
  0
SCALE
  5
C8
102
{ACAD_REACTORS
330
B0
102
}
330
B0
100
AcDbScale
 70
     0
300
3/16" = 1'-0"
140
0.1875
141
12.0
290
     0
  0
SCALE
  5
C9
102
{ACAD_REACTORS
330
B0
102
}
330
B0
100
AcDbScale
 70
     0
300
1/4" = 1'-0"
140
0.25
141
12.0
290
     0
  0
SCALE
  5
CA
102
{ACAD_REACTORS
330
B0
102
}
330
B0
100
AcDbScale
 70
     0
300
3/8" = 1'-0"
140
0.375
141
12.0
290
     0
  0
SCALE
  5
CB
102
{ACAD_REACTORS
330
B0
102
}
330
B0
100
AcDbScale
 70
     0
300
1/2" = 1'-0"
140
0.5
141
12.0
290
     0
  0
SCALE
  5
CC
102
{ACAD_REACTORS
330
B0
102
}
330
B0
100
AcDbScale
 70
     0
300
3/4" = 1'-0"
140
0.75
141
12.0
290
     0
  0
SCALE
  5
CD
102
{ACAD_REACTORS
330
B0
102
}
330
B0
100
AcDbScale
 70
     0
300
1" = 1'-0"
140
1.0
141
12.0
290
     0
  0
SCALE
  5
CE
102
{ACAD_REACTORS
330
B0
102
}
330
B0
100
AcDbScale
 70
     0
300
1-1/2" = 1'-0"
140
1.5
141
12.0
290
     0
  0
SCALE
  5
CF
102
{ACAD_REACTORS
330
B0
102
}
330
B0
100
AcDbScale
 70
     0
300
3" = 1'-0"
140
3.0
141
12.0
290
     0
  0
SCALE
  5
D0
102
{ACAD_REACTORS
330
B0
102
}
330
B0
100
AcDbScale
 70
     0
300
6" = 1'-0"
140
6.0
141
12.0
290
     0
  0
SCALE
  5
D1
102
{ACAD_REACTORS
330
B0
102
}
330
B0
100
AcDbScale
 70
     0
300
1'-0" = 1'-0"
140
12.0
141
12.0
290
     0
  0
VISUALSTYLE
  5
2F
102
{ACAD_REACTORS
330
2A
102
}
330
2A
100
AcDbVisualStyle
  2
2dWireframe
 70
     4
 71
     0
 72
     2
 73
     0
 90
        0
 40
-0.6
 41
-30.0
 62
     5
 63
     7
 74
     1
 91
        4
 64
     7
 65
   257
 75
     1
175
     1
 42
1.0
 92
        0
 66
   257
 43
1.0
 76
     1
 77
     6
 78
     2
 67
     7
 79
     5
170
     0
171
     0
290
     0
174
     0
 93
        1
 44
0.0
173
     0
291
     0
 45
0.0
1001
ACAD
1000
AcDbSavedByObjectVersion
1070
     0
  0
VISUALSTYLE
  5
31
102
{ACAD_REACTORS
330
2A
102
}
330
2A
100
AcDbVisualStyle
  2
3D Hidden
 70
     6
 71
     1
 72
     2
 73
     2
 90
        0
 40
-0.6
 41
-30.0
 62
     5
 63
     7
 74
     2
 91
        2
 64
     7
 65
   257
 75
     2
175
     1
 42
40.0
 92
        0
 66
   257
 43
1.0
 76
     1
 77
     6
 78
     2
 67
     7
 79
     3
170
     0
171
     0
290
     0
174
     0
 93
        1
 44
0.0
173
     0
291
     0
 45
0.0
1001
ACAD
1000
AcDbSavedByObjectVersion
1070
     0
  0
VISUALSTYLE
  5
30
102
{ACAD_REACTORS
330
2A
102
}
330
2A
100
AcDbVisualStyle
  2
3dWireframe
 70
     5
 71
     0
 72
     2
 73
     0
 90
        0
 40
-0.6
 41
-30.0
 62
     5
 63
     7
 74
     1
 91
        4
 64
     7
 65
   257
 75
     1
175
     1
 42
1.0
 92
        0
 66
   257
 43
1.0
 76
     1
 77
     6
 78
     2
 67
     7
 79
     5
170
     0
171
     0
290
     0
174
     0
 93
        1
 44
0.0
173
     0
291
     0
 45
0.0
1001
ACAD
1000
AcDbSavedByObjectVersion
1070
     0
  0
VISUALSTYLE
  5
32
102
{ACAD_REACTORS
330
2A
102
}
330
2A
100
AcDbVisualStyle
  2
Basic
 70
     7
 71
     1
 72
     0
 73
     1
 90
        0
 40
-0.6
 41
-30.0
 62
     5
 63
     7
 74
     0
 91
        4
 64
     7
 65
   257
 75
     1
175
     1
 42
1.0
 92
        8
 66
     7
 43
1.0
 76
     1
 77
     6
 78
     2
 67
     7
 79
     5
170
     0
171
     0
290
     0
174
     0
 93
        1
 44
0.0
173
     0
291
     1
 45
0.0
1001
ACAD
1000
AcDbSavedByObjectVersion
1070
     0
  0
VISUALSTYLE
  5
36
102
{ACAD_REACTORS
330
2A
102
}
330
2A
100
AcDbVisualStyle
  2
Brighten
 70
    12
 71
     2
 72
     2
 73
     0
 90
        0
 40
-0.6
 41
-30.0
 62
     5
 63
     7
 74
     1
 91
        4
 64
     7
 65
   257
 75
     1
175
     1
 42
1.0
 92
        8
 66
     7
 43
1.0
 76
     1
 77
     6
 78
     2
 67
     7
 79
     5
170
     0
171
     0
290
     0
174
     0
 93
        1
 44
50.0
173
     0
291
     1
 45
0.0
1001
ACAD
1000
AcDbSavedByObjectVersion
1070
     0
  0
VISUALSTYLE
  5
3A
102
{ACAD_REACTORS
330
2A
102
}
330
2A
100
AcDbVisualStyle
  2
ColorChange
 70
    16
 71
     2
 72
     2
 73
     3
 90
        0
 40
-0.6
 41
-30.0
 62
     5
 63
     8
 74
     1
 91
        4
 64
     7
 65
   257
 75
     1
175
     1
 42
1.0
 92
        8
 66
     8
 43
1.0
 76
     1
 77
     6
 78
     2
 67
     7
 79
     5
170
     0
171
     0
290
     0
174
     0
 93
        1
 44
0.0
173
     0
291
     1
 45
0.0
1001
ACAD
1000
AcDbSavedByObjectVersion
1070
     0
  0
VISUALSTYLE
  5
34
102
{ACAD_REACTORS
330
2A
102
}
330
2A
100
AcDbVisualStyle
  2
Conceptual
 70
     9
 71
     3
 72
     2
 73
     0
 90
        0
 40
-0.6
 41
-30.0
 62
     5
 63
     7
 74
     2
 91
        2
 64
     7
 65
   257
 75
     1
175
     1
 42
40.0
 92
        8
 66
     7
 43
1.0
 76
     1
 77
     6
 78
     2
 67
     7
 79
     3
170
     0
171
     0
290
     0
174
     0
 93
        1
 44
0.0
173
     0
291
     0
 45
0.0
1001
ACAD
1000
AcDbSavedByObjectVersion
1070
     0
  0
VISUALSTYLE
  5
35
102
{ACAD_REACTORS
330
2A
102
}
330
2A
100
AcDbVisualStyle
  2
Dim
 70
    11
 71
     2
 72
     2
 73
     0
 90
        0
 40
-0.6
 41
-30.0
 62
     5
 63
     7
 74
     1
 91
        4
 64
     7
 65
   257
 75
     1
175
     1
 42
1.0
 92
        8
 66
     7
 43
1.0
 76
     1
 77
     6
 78
     2
 67
     7
 79
     5
170
     0
171
     0
290
     0
174
     0
 93
        1
 44
-50.0
173
     0
291
     1
 45
0.0
1001
ACAD
1000
AcDbSavedByObjectVersion
1070
     0
  0
VISUALSTYLE
  5
39
102
{ACAD_REACTORS
330
2A
102
}
330
2A
100
AcDbVisualStyle
  2
Facepattern
 70
    15
 71
     2
 72
     2
 73
     0
 90
        0
 40
-0.6
 41
-30.0
 62
     5
 63
     7
 74
     1
 91
        4
 64
     7
 65
   257
 75
     1
175
     1
 42
1.0
 92
        8
 66
     7
 43
1.0
 76
     1
 77
     6
 78
     2
 67
     7
 79
     5
170
     0
171
     0
290
     0
174
     0
 93
        1
 44
0.0
173
     0
291
     1
 45
0.0
1001
ACAD
1000
AcDbSavedByObjectVersion
1070
     0
  0
VISUALSTYLE
  5
2B
102
{ACAD_REACTORS
330
2A
102
}
330
2A
100
AcDbVisualStyle
  2
Flat
 70
     0
 71
     2
 72
     1
 73
     1
 90
        2
 40
-0.6
 41
30.0
 62
     5
 63
     7
 74
     0
 91
        4
 64
     7
 65
   257
 75
     1
175
     1
 42
1.0
 92
        8
 66
     7
 43
1.0
 76
     1
 77
     6
 78
     2
 67
     7
 79
     5
170
     0
171
     0
290
     0
174
     0
 93
       13
 44
0.0
173
     0
291
     1
 45
0.0
1001
ACAD
1000
AcDbSavedByObjectVersion
1070
     0
  0
VISUALSTYLE
  5
2C
102
{ACAD_REACTORS
330
2A
102
}
330
2A
100
AcDbVisualStyle
  2
FlatWithEdges
 70
     1
 71
     2
 72
     1
 73
     1
 90
        2
 40
-0.6
 41
30.0
 62
     5
 63
     7
 74
     1
 91
        4
 64
     7
 65
   257
 75
     1
175
     1
 42
1.0
 92
        0
 66
   257
 43
1.0
 76
     1
 77
     6
 78
     2
 67
     7
 79
     5
170
     0
171
     0
290
     0
174
     0
 93
       13
 44
0.0
173
     0
291
     1
 45
0.0
1001
ACAD
1000
AcDbSavedByObjectVersion
1070
     0
  0
VISUALSTYLE
  5
2D
102
{ACAD_REACTORS
330
2A
102
}
330
2A
100
AcDbVisualStyle
  2
Gouraud
 70
     2
 71
     2
 72
     2
 73
     1
 90
        2
 40
-0.6
 41
30.0
 62
     5
 63
     7
 74
     0
 91
        4
 64
     7
 65
   257
 75
     1
175
     1
 42
1.0
 92
        0
 66
     7
 43
1.0
 76
     1
 77
     6
 78
     2
 67
     7
 79
     5
170
     0
171
     0
290
     0
174
     0
 93
       13
 44
0.0
173
     0
291
     1
 45
0.0
1001
ACAD
1000
AcDbSavedByObjectVersion
1070
     0
  0
VISUALSTYLE
  5
2E
102
{ACAD_REACTORS
330
2A
102
}
330
2A
100
AcDbVisualStyle
  2
GouraudWithEdges
 70
     3
 71
     2
 72
     2
 73
     1
 90
        2
 40
-0.6
 41
30.0
 62
     5
 63
     7
 74
     1
 91
        4
 64
     7
 65
   257
 75
     1
175
     1
 42
1.0
 92
        0
 66
   257
 43
1.0
 76
     1
 77
     6
 78
     2
 67
     7
 79
     5
170
     0
171
     0
290
     0
174
     0
 93
       13
 44
0.0
173
     0
291
     1
 45
0.0
1001
ACAD
1000
AcDbSavedByObjectVersion
1070
     0
  0
VISUALSTYLE
  5
38
102
{ACAD_REACTORS
330
2A
102
}
330
2A
100
AcDbVisualStyle
  2
Linepattern
 70
    14
 71
     2
 72
     2
 73
     0
 90
        0
 40
-0.6
 41
-30.0
 62
     5
 63
     7
 74
     1
 91
        4
 64
     7
 65
   257
 75
     7
175
     7
 42
1.0
 92
        8
 66
     7
 43
1.0
 76
     1
 77
     6
 78
     2
 67
     7
 79
     5
170
     0
171
     0
290
     0
174
     0
 93
        1
 44
0.0
173
     0
291
     1
 45
0.0
1001
ACAD
1000
AcDbSavedByObjectVersion
1070
     0
  0
VISUALSTYLE
  5
33
102
{ACAD_REACTORS
330
2A
102
}
330
2A
100
AcDbVisualStyle
  2
Realistic
 70
     8
 71
     2
 72
     2
 73
     0
 90
        0
 40
-0.6
 41
-30.0
 62
     5
 63
     7
 74
     1
 91
        0
 64
     7
 65
   257
 75
     1
175
     1
 42
1.0
 92
        8
 66
     8
 43
1.0
 76
     1
 77
     6
 78
     2
 67
     7
 79
     5
170
     0
171
     0
290
     0
174
     0
 93
       13
 44
0.0
173
     0
291
     0
 45
0.0
1001
ACAD
1000
AcDbSavedByObjectVersion
1070
     0
  0
VISUALSTYLE
  5
37
102
{ACAD_REACTORS
330
2A
102
}
330
2A
100
AcDbVisualStyle
  2
Thicken
 70
    13
 71
     2
 72
     2
 73
     0
 90
        0
 40
-0.6
 41
-30.0
 62
     5
 63
     7
 74
     1
 91
        4
 64
     7
 65
   257
 75
     1
175
     1
 42
1.0
 92
       12
 66
     7
 43
1.0
 76
     1
 77
     6
 78
     2
 67
     7
 79
     5
170
     0
171
     0
290
     0
174
     0
 93
        1
 44
0.0
173
     0
291
     1
 45
0.0
1001
ACAD
1000
AcDbSavedByObjectVersion
1070
     0
  0
DICTIONARYVAR
  5
335
102
{ACAD_REACTORS
330
332
102
}
330
332
100
DictionaryVariables
280
     0
  1
1:1
  0
ENDSEC
  0
EOF
